Mononoke Hime 1997 BDRip 10bit AI UPSCALE 4K x264 AC3 5 1

On a journey to find the cure for a Tatarigami's curse, Ashitaka finds himself in the middle of a war between the forest gods and Tatara, a mining colony. In this quest he also meets San, the Mononoke Hime.

Year: 1997
Duration: 134 min
Release date: Friday 26th November 1999
Genre: Animation, Adventure, Fantasy

Rating

8.4/10
(139503 Votes)

0

Your Rating

Stars:
Yôji Matsuda, Yuriko Ishida, Yûko Tanaka, Billy Crudup

General
Unique ID : 94328740887525222925492778835603723014 (0x46F70DFECC5AF0F9CAB6E8A461119306)
Complete name Mononoke.Hime.1997.BDRip.10bit.AI_UPSCALE 4K.x264.AC3.5.1.mkv
Format : Matroska
Format version : Version 4
File size : 14.8 GiB
Duration : 2 h 13 min
Overall bit rate : 15.9 Mb/s
Encoded date : UTC 2021-08-28 08:30:59
Writing application : mkvmerge v60.0.0 ('Are We Copies?') 64-bit
Writing library : libebml v1.4.2 + libmatroska v1.6.4

Video
ID : 1
Format : AVC
Format/Info : Advanced Video Codec: Format profile : High@L5.2
Format settings : CABAC / 6 Ref Frames
Format settings, CABAC : Yes
Format settings, Reference frames : 6 frames
Format settings, GOP : M=1, N=25
Codec ID : V_MPEG4/ISO/AVC
Duration : 2 h 13 min
Bit rate : 15.0 Mb/s
Width : 3 840 pixels
Height : 2 080 pixels
Display aspect ratio : 1.85:1
Frame rate mode : Constant
Frame rate : 23.976 (24000/1001) FPS
Color space : YUV
Chroma subsampling : 4:2:0
Bit depth : 8 bits
Scan type : Progressive
Bits/(Pixel*Frame) : 0.078
Stream size : 14.0 GiB (94%)
Default : Yes
Forced : No

Audio #1
ID : 2
Format : AC-3
Format/Info : Audio Coding 3
Commercial name : Dolby Digital
Codec ID : A_AC3
Duration : 2 h 13 min
Bit rate mode : Constant
Bit rate : 448 kb/s
Channel(s) : 6 channels
Channel layout : L R C LFE Ls Rs
Sampling rate : 48.0 kHz
Frame rate : 31.250 FPS (1536 SPF)
Compression mode : Lossy
Stream size : 427 MiB (3%)
Language : English
Service kind : Complete Main
Default : Yes
Forced : No

Audio #2
ID : 3
Format : AC-3
Format/Info : Audio Coding 3
Commercial name : Dolby Digital
Codec ID : A_AC3
Duration : 2 h 13 min
Bit rate mode : Constant
Bit rate : 448 kb/s
Channel(s) : 5 channels
Channel layout : L R C Ls Rs
Sampling rate : 48.0 kHz
Frame rate : 31.250 FPS (1536 SPF)
Compression mode : Lossy
Stream size : 427 MiB (3%)
Language : Russian
Service kind : Complete Main
Default : Yes
Forced : Yes

Text
ID : 4
Format : UTF-8
Codec ID : S_TEXT/UTF8
Codec ID/Info : UTF-8 Plain Text
Duration : 2 h 8 min
Bit rate : 65 b/s
Count of elements : 1097
Stream size : 61.8 KiB (0%)
Language : Russian
Default : Yes
Forced : No

Files