Kingdom of the Planet of the Apes 2024 NORDiC 2160p REPACK SDR WEB-DL-DDP 5 1 Atmos H 265-NorTekst

Many years after the reign of Caesar, a young ape goes on a journey that will lead him to question everything he's been taught about the past and make choices that will define a future for apes and humans alike.

Year: 2024
Duration: 145 min
Release date: Wednesday 8th May 2024
Genre: Action, Adventure, Sci-Fi

Rating

7.4/10
(10647 Votes)

0

Your Rating

Stars:
Freya Allan, Kevin Durand, Dichen Lachman, William H. Macy, Owen Teague, Lydia Peckham, Peter Macon, Sara Wiseman

Kingdom.of.the.Planet.of.the.Apes.2024.NORDiC.2160p.REPACK.SDR.WEB-DL-DDP.5.1.Atmos.H.265-NorTekst
IMDB: https://www.imdb.com/title/tt11389872

Many years after the reign of Caesar, a young ape goes on a journey that will lead him to question everything he's been taught about the past and make choices that will define a future for apes and humans alike.
---------------------
General
Unique ID : 156755590433656741933124852836790222302 (0x75EE074F7CB7B579DDE0318B46A8BDDE)
Complete name : Kingdom.Of.The.Planet.Of.The.Apes.2024.NORDiC.2160p.REPACK.SDR.WEB-DL-DDP.5.1.Atmos.H.265-NorTekst.mkv
Format : Matroska
Format version : Version 4
File size : 15.6 GiB
Duration : 2 h 26 min
Overall bit rate : 15.3 Mb/s
Frame rate : 24.000 FPS
Movie name : Kingdom.Of.The.Planet.Of.The.Apes.2024.NORDiC.2160p.REPACK.SDR.WEB-DL-DDP.5.1.Atmos.H.265-NorTekst
Encoded date : 2024-07-10 04:58:15 UTC
Writing application : mkvmerge v78.0 ('Running') 64-bit
Writing library : libebml v1.4.4 + libmatroska v1.7.1

Video
ID : 1
Format : HEVC
Format/Info : High Efficiency Video Coding
Format profile : Main@L5@Main
Codec ID : V_MPEGH/ISO/HEVC
Duration : 2 h 26 min
Bit rate : 14.6 Mb/s
Width : 3 840 pixels
Height : 1 600 pixels
Display aspect ratio : 2.40:1
Frame rate mode : Constant
Frame rate : 24.000 FPS
Color space : YUV
Chroma subsampling : 4:2:0
Bit depth : 8 bits
Bits/(Pixel*Frame) : 0.099
Stream size : 14.9 GiB (95%)
Default : Yes
Forced : No
Color range : Limited
Color primaries : BT.709
Transfer characteristics : BT.709
Matrix coefficients : BT.709

Audio
ID : 2
Format : E-AC-3 JOC
Format/Info : Enhanced AC-3 with Joint Object Coding
Commercial name : Dolby Digital Plus with Dolby Atmos
Codec ID : A_EAC3
Duration : 2 h 24 min
Bit rate mode : Constant
Bit rate : 768 kb/s
Channel(s) : 6 channels
Channel layout : L R C LFE Ls Rs
Sampling rate : 48.0 kHz
Frame rate : 31.250 FPS (1536 SPF)
Compression mode : Lossy
Stream size : 795 MiB (5%)
Title : Engelsk DDP 5.1 med Atmos
Language : English
Service kind : Complete Main
Default : Yes
Forced : No
Complexity index : 16
Number of dynamic objects : 15
Bed channel count : 1 channel
Bed channel configuration : LFE
Dialog Normalization : -20 dB
compr : -0.28 dB
dialnorm_Average : -20 dB
dialnorm_Minimum : -20 dB
dialnorm_Maximum : -20 dB

Text #1
ID : 3
Format : UTF-8
Codec ID : S_TEXT/UTF8
Codec ID/Info : UTF-8 Plain Text
Duration : 2 h 11 min
Bit rate : 17 b/s
Frame rate : 0.118 FPS
Count of elements : 932
Stream size : 17.0 KiB (0%)
Title : Engelsk
Language : English
Default : No
Forced : No

Text #2
ID : 4
Format : UTF-8
Codec ID : S_TEXT/UTF8
Codec ID/Info : UTF-8 Plain Text
Duration : 2 h 24 min
Bit rate : 16 b/s
Frame rate : 0.083 FPS
Count of elements : 715
Stream size : 17.7 KiB (0%)
Title : Dansk
Language : Danish
Default : No
Forced : No

Text #3
ID : 5
Format : UTF-8
Codec ID : S_TEXT/UTF8
Codec ID/Info : UTF-8 Plain Text
Duration : 2 h 24 min
Bit rate : 18 b/s
Frame rate : 0.109 FPS
Count of elements : 944
Stream size : 19.9 KiB (0%)
Title : Finsk
Language : Finnish
Default : No
Forced : No

Text #4
ID : 6
Format : UTF-8
Codec ID : S_TEXT/UTF8
Codec ID/Info : UTF-8 Plain Text
Duration : 2 h 24 min
Bit rate : 19 b/s
Frame rate : 0.110 FPS
Count of elements : 951
Stream size : 20.7 KiB (0%)
Title : Islandsk
Language : Icelandic
Default : No
Forced : No

Text #5
ID : 7
Format : UTF-8
Codec ID : S_TEXT/UTF8
Codec ID/Info : UTF-8 Plain Text
Duration : 2 h 24 min
Bit rate : 17 b/s
Frame rate : 0.110 FPS
Count of elements : 950
Stream size : 18.1 KiB (0%)
Title : Norsk
Language : Norwegian
Default : No
Forced : No

Text #6
ID : 8
Format : UTF-8
Codec ID : S_TEXT/UTF8
Codec ID/Info : UTF-8 Plain Text
Duration : 2 h 24 min
Bit rate : 17 b/s
Frame rate : 0.097 FPS
Count of elements : 838
Stream size : 18.8 KiB (0%)
Title : Svensk
Language : Swedish
Default : No
Forced : No

Text #7
ID : 9
Format : UTF-8
Codec ID : S_TEXT/UTF8
Codec ID/Info : UTF-8 Plain Text
Duration : 2 h 24 min
Bit rate : 19 b/s
Frame rate : 0.110 FPS
Count of elements : 951
Stream size : 20.5 KiB (0%)
Title : Islandsk
Language : Icelandic
Default : No
Forced : No

Menu
00:00:00.000 : en:Chapter 01
00:02:30.208 : en:Chapter 02
00:08:43.708 : en:Chapter 03
00:10:51.000 : en:Chapter 04
00:18:50.416 : en:Chapter 05
00:31:34.291 : en:Chapter 06
00:38:28.541 : en:Chapter 07
00:48:13.666 : en:Chapter 08
00:55:33.083 : en:Chapter 09
01:04:40.875 : en:Chapter 10
01:12:49.416 : en:Chapter 11
01:16:34.541 : en:Chapter 12
01:25:22.250 : en:Chapter 13
01:33:13.000 : en:Chapter 14
01:36:26.625 : en:Chapter 15
01:49:14.291 : en:Chapter 16
01:55:05.083 : en:Chapter 17
02:04:59.833 : en:Chapter 18
02:09:31.458 : en:Chapter 19
02:16:26.166 : en:Chapter 20
---------------------
Source: XEBEC
Subs: EGEN + XEBEC

Repack: Better video source

Enjoy :P

Files