FP3 Escape From Bako 2160P WEB-DL H264-AR

JTRO and Fam embark on their most dangerous mission yet: Forcing them to battle foes from the past in order to save their future from a calamity that threatens to wipe humanity off the mo' suckin' face of the Earf...4 EVZ.

Year: 2021
Genre: Comedy, Sci-Fi

Rating

7.5/10
(72 Votes)

0

Your Rating

Stars:
Jason Trost, Mike O'Gorman, Art Hsu, Bru Muller, Ryan Gibson, Tallay Wickham, Lib Campbell, Lee Valmassy

General
Complete name : FP3.Escape.From.Bako.2160P.WEB-DL.H264-AR.MP4
Format : MPEG-4
Format profile : Base Media / Version 2
Codec ID : mp42 (mp42/mp41/isom/avc1)
File size : 7.99 GiB
Duration : 1 h 9 min
Overall bit rate mode : Variable
Overall bit rate : 16.6 Mb/s
Encoded date : UTC 2021-11-01 14:13:03
Tagged date : UTC 2021-11-01 14:13:03

Video
ID : 1
Format : AVC
Format/Info : Advanced Video Codec: Format profile : High@L5.2
Format settings : CABAC / 5 Ref Frames
Format settings, CABAC : Yes
Format settings, Reference frames : 5 frames
Codec ID : avc1
Codec ID/Info : Advanced Video Coding
Duration : 1 h 9 min
Bit rate : 16.3 Mb/s
Width : 3 840 pixels
Height : 2 160 pixels
Display aspect ratio : 16:9
Frame rate mode : Constant
Frame rate : 23.976 (24000/1001) FPS
Color space : YUV
Chroma subsampling : 4:2:0
Bit depth : 8 bits
Scan type : Progressive
Bits/(Pixel*Frame) : 0.082
Stream size : 7.87 GiB (98%)
Encoded date : UTC 2021-11-01 14:13:03
Tagged date : UTC 2021-11-01 14:13:03
Color range : Limited
Color primaries : BT.709
Transfer characteristics : BT.709
Matrix coefficients : BT.709
Codec configuration box : avcC

Audio
ID : 2
Format : AAC LC
Format/Info : Advanced Audio Codec Low Complexity
Codec ID : mp4a-40-2
Duration : 1 h 9 min
Bit rate mode : Variable
Bit rate : 253 kb/s
Channel(s) : 2 channels
Channel layout : L R
Sampling rate : 48.0 kHz
Frame rate : 46.875 FPS (1024 SPF)
Compression mode : Lossy
Stream size : 125 MiB (2%)
Encoded date : UTC 2021-11-01 14:13:03
Tagged date : UTC 2021-11-01 14:13:03

Files