Dawn of the Planet of the Apes 2014-2160p BluRay HDR10 10 bit Encode AV1 DTS 5 1-R&H

In the wake of a disaster that changed the world, the growing and genetically evolving apes find themselves at a critical point with the human race.

Year: 2014
Duration: 130 min
Release date: Friday 11th July 2014
Genre: Action, Drama, Sci-Fi, Thriller

Rating

8.3/10
(49963 Votes)

0

Your Rating

Stars:
Gary Oldman, Keri Russell, Andy Serkis, Kodi Smit-McPhee

https://www.imdb.com/title/tt2103281/ https://i.ibb.co/hLTbh7q/Dawn-of-the-Planet-of-the-Apes.jpg

Source: Dawn.of.the.Planet.of.the.Apes.2014.UHD.BluRay.2160p.DTS-HD.MA.7.1.DV.HEVC.HYBRID.REMUX-FraMeSToR (Thanks!)

General
Unique ID : 137037765573307760218800543084466877167 (0x6718837CCB42EBBB4CB79869B23332EF)
Complete name : E:\Dawn.of.the.Planet.of.the.Apes.2014-2160p.BluRay.HDR10.10.bit.Encode.AV1.DTS.5.1-R&H.mkv
Format : Matroska
Format version : Version 4
File size : 8.40 GiB
Duration : 2 h 10 min
Overall bit rate : 9 221 kb/s
Frame rate : 23.976 FPS
Movie name : Dawn of the Planet of the Apes (2014)
Encoded date : 2024-07-08 21:39:57 UTC
Writing application : mkvmerge v85.0 ('Shame For You') 64-bit
Writing library : libebml v1.4.5 + libmatroska v1.7.1

Video
ID : 1
Format : AV1
Format/Info : AOMedia Video 1
Format profile : Main@L5.0
HDR format : SMPTE ST 2086, HDR10 compatible
Codec ID : V_AV1
Duration : 2 h 10 min
Bit rate : 7 773 kb/s
Width : 3 840 pixels
Height : 2 076 pixels
Display aspect ratio : 1.85:1
Frame rate mode : Constant
Frame rate : 23.976 (24000/1001) FPS
Color space : YUV
Chroma subsampling : 4:2:0 (Type 2)
Bit depth : 10 bits
Bits/(Pixel*Frame) : 0.041
Stream size : 7.08 GiB (84%)
Default : Yes
Forced : No
Color range : Limited
Color primaries : BT.2020
Transfer characteristics : PQ
Matrix coefficients : BT.2020 non-constant
Mastering display color pri : Display P3
Mastering display luminance : min: 0.0000 cd/m2, max: 1000 cd/m2

Audio
ID : 2
Format : DTS
Format/Info : Digital Theater Systems
Codec ID : A_DTS
Duration : 2 h 10 min
Bit rate mode : Constant
Bit rate : 1 002 kb/s
Channel(s) : 6 channels
Channel layout : C L R Ls Rs LFE
Sampling rate : 48.0 kHz
Frame rate : 93.750 FPS (512 SPF)
Bit depth : 16 bits
Compression mode : Lossy
Stream size : 935 MiB (11%)
Language : English
Default : No
Forced : No

Text #1
ID : 3
Format : PGS
Muxing mode : zlib
Codec ID : S_HDMV/PGS
Codec ID/Info : Picture based subtitle format used on BDs/HD-DVDs
Duration : 1 h 40 min
Bit rate : 1 873 b/s
Frame rate : 0.042 FPS
Count of elements : 252
Stream size : 1.34 MiB (0%)
Title : English (Forced)
Language : English
Default : No
Forced : Yes

Text #2
ID : 4
Format : PGS
Muxing mode : zlib
Codec ID : S_HDMV/PGS
Codec ID/Info : Picture based subtitle format used on BDs/HD-DVDs
Duration : 1 h 57 min
Bit rate : 14.8 kb/s
Frame rate : 0.245 FPS
Count of elements : 1728
Stream size : 12.4 MiB (0%)
Title : English
Language : English
Default : No
Forced : No

Text #3
ID : 5
Format : PGS
Muxing mode : zlib
Codec ID : S_HDMV/PGS
Codec ID/Info : Picture based subtitle format used on BDs/HD-DVDs
Duration : 1 h 58 min
Bit rate : 22.9 kb/s
Frame rate : 0.359 FPS
Count of elements : 2562
Stream size : 19.5 MiB (0%)
Title : English (SDH)
Language : English
Default : No
Forced : No

Text #4
ID : 6
Format : PGS
Muxing mode : zlib
Codec ID : S_HDMV/PGS
Codec ID/Info : Picture based subtitle format used on BDs/HD-DVDs
Duration : 2 h 9 min
Bit rate : 7 131 b/s
Frame rate : 0.226 FPS
Count of elements : 1752
Stream size : 6.60 MiB (0%)
Title : Arabic
Language : Arabic
Default : No
Forced : No

Text #5
ID : 7
Format : PGS
Muxing mode : zlib
Codec ID : S_HDMV/PGS
Codec ID/Info : Picture based subtitle format used on BDs/HD-DVDs
Duration : 2 h 9 min
Bit rate : 13.2 kb/s
Frame rate : 0.226 FPS
Count of elements : 1756
Stream size : 12.2 MiB (0%)
Title : Bulgarian
Language : Bulgarian
Default : No
Forced : No

Text #6
ID : 8
Format : PGS
Muxing mode : zlib
Codec ID : S_HDMV/PGS
Codec ID/Info : Picture based subtitle format used on BDs/HD-DVDs
Duration : 2 h 9 min
Bit rate : 11.0 kb/s
Frame rate : 0.227 FPS
Count of elements : 1764
Stream size : 10.2 MiB (0%)
Title : Chinese (Cantonese)
Language : Chinese
Default : No
Forced : No

Text #7
ID : 9
Format : PGS
Muxing mode : zlib
Codec ID : S_HDMV/PGS
Codec ID/Info : Picture based subtitle format used on BDs/HD-DVDs
Duration : 2 h 9 min
Bit rate : 11.0 kb/s
Frame rate : 0.235 FPS
Count of elements : 1825
Stream size : 10.2 MiB (0%)
Title : Chinese (Mandarin Traditional)
Language : Chinese
Default : No
Forced : No

Text #8
ID : 10
Format : PGS
Muxing mode : zlib
Codec ID : S_HDMV/PGS
Codec ID/Info : Picture based subtitle format used on BDs/HD-DVDs
Duration : 2 h 9 min
Bit rate : 12.3 kb/s
Frame rate : 0.226 FPS
Count of elements : 1752
Stream size : 11.4 MiB (0%)
Title : Czech
Language : Czech
Default : No
Forced : No

Text #9
ID : 11
Format : PGS
Muxing mode : zlib
Codec ID : S_HDMV/PGS
Codec ID/Info : Picture based subtitle format used on BDs/HD-DVDs
Duration : 2 h 9 min
Bit rate : 13.2 kb/s
Frame rate : 0.225 FPS
Count of elements : 1746
Stream size : 12.2 MiB (0%)
Title : Croatian
Language : Croatian
Default : No
Forced : No

Text #10
ID : 12
Format : PGS
Muxing mode : zlib
Codec ID : S_HDMV/PGS
Codec ID/Info : Picture based subtitle format used on BDs/HD-DVDs
Duration : 2 h 9 min
Bit rate : 13.2 kb/s
Frame rate : 0.209 FPS
Count of elements : 1626
Stream size : 12.2 MiB (0%)
Title : Danish
Language : Danish
Default : No
Forced : No

Text #11
ID : 13
Format : PGS
Muxing mode : zlib
Codec ID : S_HDMV/PGS
Codec ID/Info : Picture based subtitle format used on BDs/HD-DVDs
Duration : 2 h 9 min
Bit rate : 12.1 kb/s
Frame rate : 0.197 FPS
Count of elements : 1532
Stream size : 11.2 MiB (0%)
Title : Dutch
Language : Dutch
Default : No
Forced : No

Text #12
ID : 14
Format : PGS
Muxing mode : zlib
Codec ID : S_HDMV/PGS
Codec ID/Info : Picture based subtitle format used on BDs/HD-DVDs
Duration : 2 h 9 min
Bit rate : 12.8 kb/s
Frame rate : 0.222 FPS
Count of elements : 1720
Stream size : 11.9 MiB (0%)
Title : Estonian
Language : Estonian
Default : No
Forced : No

Text #13
ID : 15
Format : PGS
Muxing mode : zlib
Codec ID : S_HDMV/PGS
Codec ID/Info : Picture based subtitle format used on BDs/HD-DVDs
Duration : 2 h 9 min
Bit rate : 12.3 kb/s
Frame rate : 0.217 FPS
Count of elements : 1688
Stream size : 11.4 MiB (0%)
Title : Finnish
Language : Finnish
Default : No
Forced : No

Text #14
ID : 16
Format : PGS
Muxing mode : zlib
Codec ID : S_HDMV/PGS
Codec ID/Info : Picture based subtitle format used on BDs/HD-DVDs
Duration : 2 h 9 min
Bit rate : 11.7 kb/s
Frame rate : 0.203 FPS
Count of elements : 1574
Stream size : 10.8 MiB (0%)
Title : French
Language : French
Default : No
Forced : No

Text #15
ID : 17
Format : PGS
Muxing mode : zlib
Codec ID : S_HDMV/PGS
Codec ID/Info : Picture based subtitle format used on BDs/HD-DVDs
Duration : 2 h 9 min
Bit rate : 14.8 kb/s
Frame rate : 0.219 FPS
Count of elements : 1704
Stream size : 13.7 MiB (0%)
Title : German
Language : German
Default : No
Forced : No

Text #16
ID : 18
Format : PGS
Muxing mode : zlib
Codec ID : S_HDMV/PGS
Codec ID/Info : Picture based subtitle format used on BDs/HD-DVDs
Duration : 2 h 9 min
Bit rate : 14.0 kb/s
Frame rate : 0.198 FPS
Count of elements : 1534
Stream size : 13.0 MiB (0%)
Title : Greek
Language : Greek
Default : No
Forced : No

Text #17
ID : 19
Format : PGS
Muxing mode : zlib
Codec ID : S_HDMV/PGS
Codec ID/Info : Picture based subtitle format used on BDs/HD-DVDs
Duration : 2 h 9 min
Bit rate : 9 340 b/s
Frame rate : 0.225 FPS
Count of elements : 1748
Stream size : 8.64 MiB (0%)
Title : Hebrew
Language : Hebrew
Default : No
Forced : No

Text #18
ID : 20
Format : PGS
Muxing mode : zlib
Codec ID : S_HDMV/PGS
Codec ID/Info : Picture based subtitle format used on BDs/HD-DVDs
Duration : 2 h 9 min
Bit rate : 11.2 kb/s
Frame rate : 0.226 FPS
Count of elements : 1758
Stream size : 10.4 MiB (0%)
Title : Hindi
Language : Hindi
Default : No
Forced : No

Text #19
ID : 21
Format : PGS
Muxing mode : zlib
Codec ID : S_HDMV/PGS
Codec ID/Info : Picture based subtitle format used on BDs/HD-DVDs
Duration : 2 h 9 min
Bit rate : 12.4 kb/s
Frame rate : 0.184 FPS
Count of elements : 1426
Stream size : 11.5 MiB (0%)
Title : Hungarian
Language : Hungarian
Default : No
Forced : No

Text #20
ID : 22
Format : PGS
Muxing mode : zlib
Codec ID : S_HDMV/PGS
Codec ID/Info : Picture based subtitle format used on BDs/HD-DVDs
Duration : 2 h 9 min
Bit rate : 12.8 kb/s
Frame rate : 0.219 FPS
Count of elements : 1702
Stream size : 11.9 MiB (0%)
Title : Icelandic
Language : Icelandic
Default : No
Forced : No

Text #21
ID : 23
Format : PGS
Muxing mode : zlib
Codec ID : S_HDMV/PGS
Codec ID/Info : Picture based subtitle format used on BDs/HD-DVDs
Duration : 2 h 9 min
Bit rate : 14.4 kb/s
Frame rate : 0.222 FPS
Count of elements : 1726
Stream size : 13.4 MiB (0%)
Title : Indonesian
Language : Indonesian
Default : No
Forced : No

Text #22
ID : 24
Format : PGS
Muxing mode : zlib
Codec ID : S_HDMV/PGS
Codec ID/Info : Picture based subtitle format used on BDs/HD-DVDs
Duration : 2 h 9 min
Bit rate : 13.4 kb/s
Frame rate : 0.226 FPS
Count of elements : 1754
Stream size : 12.4 MiB (0%)
Title : Italian
Language : Italian
Default : No
Forced : No

Text #23
ID : 25
Format : PGS
Muxing mode : zlib
Codec ID : S_HDMV/PGS
Codec ID/Info : Picture based subtitle format used on BDs/HD-DVDs
Duration : 2 h 9 min
Bit rate : 9 641 b/s
Frame rate : 0.197 FPS
Count of elements : 1526
Stream size : 8.91 MiB (0%)
Title : Japanese
Language : Japanese
Default : No
Forced : No

Text #24
ID : 26
Format : PGS
Muxing mode : zlib
Codec ID : S_HDMV/PGS
Codec ID/Info : Picture based subtitle format used on BDs/HD-DVDs
Duration : 2 h 9 min
Bit rate : 9 279 b/s
Frame rate : 0.223 FPS
Count of elements : 1733
Stream size : 8.59 MiB (0%)
Title : Korean
Language : Korean
Default : No
Forced : No

Text #25
ID : 27
Format : PGS
Muxing mode : zlib
Codec ID : S_HDMV/PGS
Codec ID/Info : Picture based subtitle format used on BDs/HD-DVDs
Duration : 2 h 9 min
Bit rate : 13.0 kb/s
Frame rate : 0.225 FPS
Count of elements : 1744
Stream size : 12.0 MiB (0%)
Title : Latvian
Language : Latvian
Default : No
Forced : No

Text #26
ID : 28
Format : PGS
Muxing mode : zlib
Codec ID : S_HDMV/PGS
Codec ID/Info : Picture based subtitle format used on BDs/HD-DVDs
Duration : 2 h 9 min
Bit rate : 12.5 kb/s
Frame rate : 0.222 FPS
Count of elements : 1726
Stream size : 11.5 MiB (0%)
Title : Lithuanian
Language : Lithuanian
Default : No
Forced : No

Text #27
ID : 29
Format : PGS
Muxing mode : zlib
Codec ID : S_HDMV/PGS
Codec ID/Info : Picture based subtitle format used on BDs/HD-DVDs
Duration : 2 h 9 min
Bit rate : 16.8 kb/s
Frame rate : 0.227 FPS
Count of elements : 1760
Stream size : 15.5 MiB (0%)
Title : Malay
Language : Malay
Default : No
Forced : No

Text #28
ID : 30
Format : PGS
Muxing mode : zlib
Codec ID : S_HDMV/PGS
Codec ID/Info : Picture based subtitle format used on BDs/HD-DVDs
Duration : 2 h 9 min
Bit rate : 13.3 kb/s
Frame rate : 0.225 FPS
Count of elements : 1746
Stream size : 12.3 MiB (0%)
Title : Norwegian
Language : Norwegian
Default : No
Forced : No

Text #29
ID : 31
Format : PGS
Muxing mode : zlib
Codec ID : S_HDMV/PGS
Codec ID/Info : Picture based subtitle format used on BDs/HD-DVDs
Duration : 2 h 9 min
Bit rate : 12.1 kb/s
Frame rate : 0.217 FPS
Count of elements : 1688
Stream size : 11.2 MiB (0%)
Title : Polish
Language : Polish
Default : No
Forced : No

Text #30
ID : 32
Format : PGS
Muxing mode : zlib
Codec ID : S_HDMV/PGS
Codec ID/Info : Picture based subtitle format used on BDs/HD-DVDs
Duration : 2 h 9 min
Bit rate : 12.2 kb/s
Frame rate : 0.219 FPS
Count of elements : 1700
Stream size : 11.3 MiB (0%)
Title : Portuguese (Brazilian)
Language : Portuguese
Default : No
Forced : No

Text #31
ID : 33
Format : PGS
Muxing mode : zlib
Codec ID : S_HDMV/PGS
Codec ID/Info : Picture based subtitle format used on BDs/HD-DVDs
Duration : 2 h 9 min
Bit rate : 14.3 kb/s
Frame rate : 0.226 FPS
Count of elements : 1756
Stream size : 13.2 MiB (0%)
Title : Portuguese (Iberian)
Language : Portuguese
Default : No
Forced : No

Text #32
ID : 34
Format : PGS
Muxing mode : zlib
Codec ID : S_HDMV/PGS
Codec ID/Info : Picture based subtitle format used on BDs/HD-DVDs
Duration : 2 h 9 min
Bit rate : 12.3 kb/s
Frame rate : 0.222 FPS
Count of elements : 1722
Stream size : 11.4 MiB (0%)
Title : Romanian
Language : Romanian
Default : No
Forced : No

Text #33
ID : 35
Format : PGS
Muxing mode : zlib
Codec ID : S_HDMV/PGS
Codec ID/Info : Picture based subtitle format used on BDs/HD-DVDs
Duration : 2 h 9 min
Bit rate : 13.2 kb/s
Frame rate : 0.226 FPS
Count of elements : 1754
Stream size : 12.2 MiB (0%)
Title : Russian
Language : Russian
Default : No
Forced : No

Text #34
ID : 36
Format : PGS
Muxing mode : zlib
Codec ID : S_HDMV/PGS
Codec ID/Info : Picture based subtitle format used on BDs/HD-DVDs
Duration : 2 h 9 min
Bit rate : 12.4 kb/s
Frame rate : 0.226 FPS
Count of elements : 1752
Stream size : 11.4 MiB (0%)
Title : Serbian
Language : Serbian
Default : No
Forced : No

Text #35
ID : 37
Format : PGS
Muxing mode : zlib
Codec ID : S_HDMV/PGS
Codec ID/Info : Picture based subtitle format used on BDs/HD-DVDs
Duration : 2 h 9 min
Bit rate : 12.0 kb/s
Frame rate : 0.222 FPS
Count of elements : 1724
Stream size : 11.1 MiB (0%)
Title : Slovak
Language : Slovak
Default : No
Forced : No

Text #36
ID : 38
Format : PGS
Muxing mode : zlib
Codec ID : S_HDMV/PGS
Codec ID/Info : Picture based subtitle format used on BDs/HD-DVDs
Duration : 2 h 9 min
Bit rate : 11.3 kb/s
Frame rate : 0.199 FPS
Count of elements : 1548
Stream size : 10.5 MiB (0%)
Title : Slovenian
Language : Slovenian
Default : No
Forced : No

Text #37
ID : 39
Format : PGS
Muxing mode : zlib
Codec ID : S_HDMV/PGS
Codec ID/Info : Picture based subtitle format used on BDs/HD-DVDs
Duration : 2 h 9 min
Bit rate : 13.7 kb/s
Frame rate : 0.223 FPS
Count of elements : 1728
Stream size : 12.7 MiB (0%)
Title : Spanish (Castilian)
Language : Spanish
Default : No
Forced : No

Text #38
ID : 40
Format : PGS
Muxing mode : zlib
Codec ID : S_HDMV/PGS
Codec ID/Info : Picture based subtitle format used on BDs/HD-DVDs
Duration : 2 h 9 min
Bit rate : 14.4 kb/s
Frame rate : 0.221 FPS
Count of elements : 1716
Stream size : 13.3 MiB (0%)
Title : Spanish (Latin American)
Language : Spanish
Default : No
Forced : No

Text #39
ID : 41
Format : PGS
Muxing mode : zlib
Codec ID : S_HDMV/PGS
Codec ID/Info : Picture based subtitle format used on BDs/HD-DVDs
Duration : 2 h 9 min
Bit rate : 13.5 kb/s
Frame rate : 0.225 FPS
Count of elements : 1750
Stream size : 12.5 MiB (0%)
Title : Swedish
Language : Swedish
Default : No
Forced : No

Text #40
ID : 42
Format : PGS
Muxing mode : zlib
Codec ID : S_HDMV/PGS
Codec ID/Info : Picture based subtitle format used on BDs/HD-DVDs
Duration : 2 h 9 min
Bit rate : 17.2 kb/s
Frame rate : 0.226 FPS
Count of elements : 1756
Stream size : 15.9 MiB (0%)
Title : Tamil
Language : Tamil
Default : No
Forced : No

Text #41
ID : 43
Format : PGS
Muxing mode : zlib
Codec ID : S_HDMV/PGS
Codec ID/Info : Picture based subtitle format used on BDs/HD-DVDs
Duration : 2 h 9 min
Bit rate : 13.3 kb/s
Frame rate : 0.226 FPS
Count of elements : 1756
Stream size : 12.4 MiB (0%)
Title : Telugu
Language : Telugu
Default : No
Forced : No

Text #42
ID : 44
Format : PGS
Muxing mode : zlib
Codec ID : S_HDMV/PGS
Codec ID/Info : Picture based subtitle format used on BDs/HD-DVDs
Duration : 2 h 9 min
Bit rate : 10.9 kb/s
Frame rate : 0.226 FPS
Count of elements : 1756
Stream size : 10.1 MiB (0%)
Title : Thai
Language : Thai
Default : No
Forced : No

Text #43
ID : 45
Format : PGS
Muxing mode : zlib
Codec ID : S_HDMV/PGS
Codec ID/Info : Picture based subtitle format used on BDs/HD-DVDs
Duration : 2 h 9 min
Bit rate : 14.1 kb/s
Frame rate : 0.226 FPS
Count of elements : 1754
Stream size : 13.1 MiB (0%)
Title : Turkish
Language : Turkish
Default : No
Forced : No

Text #44
ID : 46
Format : PGS
Muxing mode : zlib
Codec ID : S_HDMV/PGS
Codec ID/Info : Picture based subtitle format used on BDs/HD-DVDs
Duration : 2 h 9 min
Bit rate : 13.7 kb/s
Frame rate : 0.226 FPS
Count of elements : 1752
Stream size : 12.7 MiB (0%)
Title : Ukrainian
Language : Ukrainian
Default : No
Forced : No

Text #45
ID : 47
Format : PGS
Muxing mode : zlib
Codec ID : S_HDMV/PGS
Codec ID/Info : Picture based subtitle format used on BDs/HD-DVDs
Duration : 2 h 9 min
Bit rate : 14.5 kb/s
Frame rate : 0.226 FPS
Count of elements : 1754
Stream size : 13.4 MiB (0%)
Title : Vietnamese
Language : Vietnamese
Default : No
Forced : No

Text #46
ID : 48
Format : PGS
Muxing mode : zlib
Codec ID : S_HDMV/PGS
Codec ID/Info : Picture based subtitle format used on BDs/HD-DVDs
Duration : 2 h 1 min
Bit rate : 77.9 kb/s
Frame rate : 0.569 FPS
Count of elements : 4148
Stream size : 67.8 MiB (1%)
Title : English (Commentary)
Language : English
Default : No
Forced : No

Text #47
ID : 49
Format : PGS
Muxing mode : zlib
Codec ID : S_HDMV/PGS
Codec ID/Info : Picture based subtitle format used on BDs/HD-DVDs
Duration : 2 h 9 min
Bit rate : 58.3 kb/s
Frame rate : 0.520 FPS
Count of elements : 4054
Stream size : 54.1 MiB (1%)
Title : Danish (Commentary)
Language : Danish
Default : No
Forced : No

Text #48
ID : 50
Format : PGS
Muxing mode : zlib
Codec ID : S_HDMV/PGS
Codec ID/Info : Picture based subtitle format used on BDs/HD-DVDs
Duration : 2 h 9 min
Bit rate : 61.7 kb/s
Frame rate : 0.517 FPS
Count of elements : 4024
Stream size : 57.3 MiB (1%)
Title : Dutch (Commentary)
Language : Dutch
Default : No
Forced : No

Text #49
ID : 51
Format : PGS
Muxing mode : zlib
Codec ID : S_HDMV/PGS
Codec ID/Info : Picture based subtitle format used on BDs/HD-DVDs
Duration : 2 h 9 min
Bit rate : 61.6 kb/s
Frame rate : 0.520 FPS
Count of elements : 4054
Stream size : 57.2 MiB (1%)
Title : Finnish (Commentary)
Language : Finnish
Default : No
Forced : No

Text #50
ID : 52
Format : PGS
Muxing mode : zlib
Codec ID : S_HDMV/PGS
Codec ID/Info : Picture based subtitle format used on BDs/HD-DVDs
Duration : 2 h 9 min
Bit rate : 63.2 kb/s
Frame rate : 0.519 FPS
Count of elements : 4042
Stream size : 58.7 MiB (1%)
Title : French (Commentary)
Language : French
Default : No
Forced : No

Text #51
ID : 53
Format : PGS
Muxing mode : zlib
Codec ID : S_HDMV/PGS
Codec ID/Info : Picture based subtitle format used on BDs/HD-DVDs
Duration : 2 h 9 min
Bit rate : 67.0 kb/s
Frame rate : 0.520 FPS
Count of elements : 4052
Stream size : 62.2 MiB (1%)
Title : German (Commentary)
Language : German
Default : No
Forced : No

Text #52
ID : 54
Format : PGS
Muxing mode : zlib
Codec ID : S_HDMV/PGS
Codec ID/Info : Picture based subtitle format used on BDs/HD-DVDs
Duration : 2 h 9 min
Bit rate : 59.6 kb/s
Frame rate : 0.521 FPS
Count of elements : 4056
Stream size : 55.3 MiB (1%)
Title : Italian (Commentary)
Language : Italian
Default : No
Forced : No

Text #53
ID : 55
Format : PGS
Muxing mode : zlib
Codec ID : S_HDMV/PGS
Codec ID/Info : Picture based subtitle format used on BDs/HD-DVDs
Duration : 2 h 9 min
Bit rate : 38.6 kb/s
Frame rate : 0.380 FPS
Count of elements : 2960
Stream size : 35.9 MiB (0%)
Title : Japanese (Commentary)
Language : Japanese
Default : No
Forced : No

Text #54
ID : 56
Format : PGS
Muxing mode : zlib
Codec ID : S_HDMV/PGS
Codec ID/Info : Picture based subtitle format used on BDs/HD-DVDs
Duration : 2 h 9 min
Bit rate : 41.5 kb/s
Frame rate : 0.520 FPS
Count of elements : 4052
Stream size : 38.5 MiB (0%)
Title : Korean (Commentary)
Language : Korean
Default : No
Forced : No

Text #55
ID : 57
Format : PGS
Muxing mode : zlib
Codec ID : S_HDMV/PGS
Codec ID/Info : Picture based subtitle format used on BDs/HD-DVDs
Duration : 2 h 9 min
Bit rate : 61.8 kb/s
Frame rate : 0.520 FPS
Count of elements : 4054
Stream size : 57.3 MiB (1%)
Title : Norwegian (Commentary)
Language : Norwegian
Default : No
Forced : No

Text #56
ID : 58
Format : PGS
Muxing mode : zlib
Codec ID : S_HDMV/PGS
Codec ID/Info : Picture based subtitle format used on BDs/HD-DVDs
Duration : 2 h 9 min
Bit rate : 68.1 kb/s
Frame rate : 0.520 FPS
Count of elements : 4054
Stream size : 63.2 MiB (1%)
Title : Russian (Commentary)
Language : Russian
Default : No
Forced : No

Text #57
ID : 59
Format : PGS
Muxing mode : zlib
Codec ID : S_HDMV/PGS
Codec ID/Info : Picture based subtitle format used on BDs/HD-DVDs
Duration : 2 h 9 min
Bit rate : 62.9 kb/s
Frame rate : 0.521 FPS
Count of elements : 4056
Stream size : 58.4 MiB (1%)
Title : Spanish (Latin American) (Commentary)
Language : Spanish
Default : No
Forced : No

Text #58
ID : 60
Format : PGS
Muxing mode : zlib
Codec ID : S_HDMV/PGS
Codec ID/Info : Picture based subtitle format used on BDs/HD-DVDs
Duration : 2 h 9 min
Bit rate : 62.2 kb/s
Frame rate : 0.521 FPS
Count of elements : 4056
Stream size : 57.8 MiB (1%)
Title : Swedish (Commentary)
Language : Swedish
Default : No
Forced : No

Menu
00:00:00.000 : en:Chapter 1
00:03:21.159 : en:Chapter 2
00:07:34.913 : en:Chapter 3
00:12:36.547 : en:Chapter 4
00:16:23.566 : en:Chapter 5
00:18:47.043 : en:Chapter 6
00:21:52.478 : en:Chapter 7
00:25:26.692 : en:Chapter 8
00:29:45.867 : en:Chapter 9
00:31:50.617 : en:Chapter 10
00:36:43.743 : en:Chapter 11
00:39:07.554 : en:Chapter 12
00:40:57.163 : en:Chapter 13
00:44:12.233 : en:Chapter 14
00:48:11.138 : en:Chapter 15
00:50:31.528 : en:Chapter 16
00:53:48.016 : en:Chapter 17
00:57:25.317 : en:Chapter 18
01:01:18.466 : en:Chapter 19
01:02:35.377 : en:Chapter 20
01:04:24.069 : en:Chapter 21
01:06:21.728 : en:Chapter 22
01:09:31.334 : en:Chapter 23
01:13:56.974 : en:Chapter 24
01:17:17.925 : en:Chapter 25
01:20:53.390 : en:Chapter 26
01:23:28.754 : en:Chapter 27
01:26:08.997 : en:Chapter 28
01:28:19.252 : en:Chapter 29
01:33:24.390 : en:Chapter 30
01:35:53.122 : en:Chapter 31
01:38:38.621 : en:Chapter 32
01:40:42.536 : en:Chapter 33
01:44:07.533 : en:Chapter 34
01:46:05.317 : en:Chapter 35
01:47:54.468 : en:Chapter 36
01:52:13.769 : en:Chapter 37
01:56:27.480 : en:Chapter 38
02:00:31.015 : en:Chapter 39
02:01:35.038 : en:Chapter 40

Files