Rise of the Planet of the Apes 2011-2160p BluRay HDR10 10 bit Encode AV1 DTS 5 1-R&H

An origin story set in present day San Francisco, where man's own experiments with genetic engineering lead to the development of intelligence in apes and the onset of a war for supremacy.

Year: 2011
Duration: 105 min
Release date: Friday 5th August 2011
Genre: Action, Drama, Sci-Fi, Thriller

Rating

7.6/10
(1143 Votes)

0

Your Rating

Stars:
James Franco, Andy Serkis, Freida Pinto, John Lithgow

https://www.imdb.com/title/tt1318514/ https://i.ibb.co/HKggMNN/Rise-of-the-Planet-of-the-Apes.jpg

Source: Rise.of.the.Planet.of.the.Apes.2011.UHD.BluRay.2160p.DTS-HD.MA.5.1.DV.HEVC.HYBRID.REMUX-FraMeSToR (Thanks!)

General
Unique ID : 101426523114722574561431704334341052652 (0x4C4E09AD67380A28C13218FD274918EC)
Complete name : E:\Rise.of.the.Planet.of.the.Apes.2011-2160p.BluRay.HDR10.10.bit.Encode.AV1.DTS.5.1-R&H.mkv
Format : Matroska
Format version : Version 4
File size : 6.86 GiB
Duration : 1 h 44 min
Overall bit rate : 9 355 kb/s
Frame rate : 23.976 FPS
Movie name : Rise of the Planet of the Apes (2011)
Encoded date : 2024-07-08 21:53:57 UTC
Writing application : mkvmerge v85.0 ('Shame For You') 64-bit
Writing library : libebml v1.4.5 + libmatroska v1.7.1

Video
ID : 1
Format : AV1
Format/Info : AOMedia Video 1
Format profile : Main@L5.0
HDR format : SMPTE ST 2086, HDR10 compatible
Codec ID : V_AV1
Duration : 1 h 44 min
Bit rate : 7 864 kb/s
Width : 3 840 pixels
Height : 1 636 pixels
Display aspect ratio : 2.35:1
Frame rate mode : Constant
Frame rate : 23.976 (24000/1001) FPS
Color space : YUV
Chroma subsampling : 4:2:0 (Type 2)
Bit depth : 10 bits
Bits/(Pixel*Frame) : 0.052
Stream size : 5.76 GiB (84%)
Default : Yes
Forced : No
Color range : Limited
Color primaries : BT.2020
Transfer characteristics : PQ
Matrix coefficients : BT.2020 non-constant
Mastering display color pri : Display P3
Mastering display luminance : min: 0.0000 cd/m2, max: 1000 cd/m2

Audio
ID : 2
Format : DTS
Format/Info : Digital Theater Systems
Codec ID : A_DTS
Duration : 1 h 44 min
Bit rate mode : Constant
Bit rate : 1 002 kb/s
Channel(s) : 6 channels
Channel layout : C L R Ls Rs LFE
Sampling rate : 48.0 kHz
Frame rate : 93.750 FPS (512 SPF)
Bit depth : 16 bits
Compression mode : Lossy
Stream size : 752 MiB (11%)
Language : English
Default : No
Forced : No

Text #1
ID : 3
Format : PGS
Muxing mode : zlib
Codec ID : S_HDMV/PGS
Codec ID/Info : Picture based subtitle format used on BDs/HD-DVDs
Duration : 55 min 48 s
Bit rate : 169 b/s
Frame rate : 0.006 FPS
Count of elements : 20
Stream size : 69.4 KiB (0%)
Title : English (Forced)
Language : English
Default : No
Forced : Yes

Text #2
ID : 4
Format : PGS
Muxing mode : zlib
Codec ID : S_HDMV/PGS
Codec ID/Info : Picture based subtitle format used on BDs/HD-DVDs
Duration : 1 h 41 min
Bit rate : 19.2 kb/s
Frame rate : 0.267 FPS
Count of elements : 1628
Stream size : 14.0 MiB (0%)
Title : English
Language : English
Default : No
Forced : No

Text #3
ID : 5
Format : PGS
Muxing mode : zlib
Codec ID : S_HDMV/PGS
Codec ID/Info : Picture based subtitle format used on BDs/HD-DVDs
Duration : 1 h 43 min
Bit rate : 24.5 kb/s
Frame rate : 0.335 FPS
Count of elements : 2076
Stream size : 18.1 MiB (0%)
Title : English (SDH)
Language : English
Default : No
Forced : No

Text #4
ID : 6
Format : PGS
Muxing mode : zlib
Codec ID : S_HDMV/PGS
Codec ID/Info : Picture based subtitle format used on BDs/HD-DVDs
Duration : 1 h 41 min
Bit rate : 8 924 b/s
Frame rate : 0.281 FPS
Count of elements : 1718
Stream size : 6.50 MiB (0%)
Title : Arabic
Language : Arabic
Default : No
Forced : No

Text #5
ID : 7
Format : PGS
Muxing mode : zlib
Codec ID : S_HDMV/PGS
Codec ID/Info : Picture based subtitle format used on BDs/HD-DVDs
Duration : 1 h 43 min
Bit rate : 16.3 kb/s
Frame rate : 0.223 FPS
Count of elements : 1386
Stream size : 12.1 MiB (0%)
Title : Bulgarian
Language : Bulgarian
Default : No
Forced : No

Text #6
ID : 8
Format : PGS
Muxing mode : zlib
Codec ID : S_HDMV/PGS
Codec ID/Info : Picture based subtitle format used on BDs/HD-DVDs
Duration : 1 h 43 min
Bit rate : 13.7 kb/s
Frame rate : 0.275 FPS
Count of elements : 1712
Stream size : 10.2 MiB (0%)
Title : Chinese (Cantonese)
Language : Chinese
Default : No
Forced : No

Text #7
ID : 9
Format : PGS
Muxing mode : zlib
Codec ID : S_HDMV/PGS
Codec ID/Info : Picture based subtitle format used on BDs/HD-DVDs
Duration : 1 h 41 min
Bit rate : 16.8 kb/s
Frame rate : 0.273 FPS
Count of elements : 1664
Stream size : 12.2 MiB (0%)
Title : Chinese (Mandarin Simplified)
Language : Chinese
Default : No
Forced : No

Text #8
ID : 10
Format : PGS
Muxing mode : zlib
Codec ID : S_HDMV/PGS
Codec ID/Info : Picture based subtitle format used on BDs/HD-DVDs
Duration : 1 h 43 min
Bit rate : 15.7 kb/s
Frame rate : 0.299 FPS
Count of elements : 1860
Stream size : 11.7 MiB (0%)
Title : Chinese (Mandarin Traditional)
Language : Chinese
Default : No
Forced : No

Text #9
ID : 11
Format : PGS
Muxing mode : zlib
Codec ID : S_HDMV/PGS
Codec ID/Info : Picture based subtitle format used on BDs/HD-DVDs
Duration : 1 h 41 min
Bit rate : 18.4 kb/s
Frame rate : 0.271 FPS
Count of elements : 1654
Stream size : 13.4 MiB (0%)
Title : Croatian
Language : Croatian
Default : No
Forced : No

Text #10
ID : 12
Format : PGS
Muxing mode : zlib
Codec ID : S_HDMV/PGS
Codec ID/Info : Picture based subtitle format used on BDs/HD-DVDs
Duration : 1 h 41 min
Bit rate : 17.8 kb/s
Frame rate : 0.270 FPS
Count of elements : 1648
Stream size : 13.0 MiB (0%)
Title : Czech
Language : Czech
Default : No
Forced : No

Text #11
ID : 13
Format : PGS
Muxing mode : zlib
Codec ID : S_HDMV/PGS
Codec ID/Info : Picture based subtitle format used on BDs/HD-DVDs
Duration : 1 h 41 min
Bit rate : 17.6 kb/s
Frame rate : 0.224 FPS
Count of elements : 1366
Stream size : 12.8 MiB (0%)
Title : Danish
Language : Danish
Default : No
Forced : No

Text #12
ID : 14
Format : PGS
Muxing mode : zlib
Codec ID : S_HDMV/PGS
Codec ID/Info : Picture based subtitle format used on BDs/HD-DVDs
Duration : 1 h 41 min
Bit rate : 15.6 kb/s
Frame rate : 0.236 FPS
Count of elements : 1440
Stream size : 11.4 MiB (0%)
Title : Dutch
Language : Dutch
Default : No
Forced : No

Text #13
ID : 15
Format : PGS
Muxing mode : zlib
Codec ID : S_HDMV/PGS
Codec ID/Info : Picture based subtitle format used on BDs/HD-DVDs
Duration : 1 h 41 min
Bit rate : 18.6 kb/s
Frame rate : 0.271 FPS
Count of elements : 1652
Stream size : 13.5 MiB (0%)
Title : Estonian
Language : Estonian
Default : No
Forced : No

Text #14
ID : 16
Format : PGS
Muxing mode : zlib
Codec ID : S_HDMV/PGS
Codec ID/Info : Picture based subtitle format used on BDs/HD-DVDs
Duration : 1 h 43 min
Bit rate : 15.4 kb/s
Frame rate : 0.216 FPS
Count of elements : 1346
Stream size : 11.4 MiB (0%)
Title : Finnish
Language : Finnish
Default : No
Forced : No

Text #15
ID : 17
Format : PGS
Muxing mode : zlib
Codec ID : S_HDMV/PGS
Codec ID/Info : Picture based subtitle format used on BDs/HD-DVDs
Duration : 1 h 43 min
Bit rate : 14.1 kb/s
Frame rate : 0.218 FPS
Count of elements : 1358
Stream size : 10.5 MiB (0%)
Title : French
Language : French
Default : No
Forced : No

Text #16
ID : 18
Format : PGS
Muxing mode : zlib
Codec ID : S_HDMV/PGS
Codec ID/Info : Picture based subtitle format used on BDs/HD-DVDs
Duration : 1 h 41 min
Bit rate : 19.2 kb/s
Frame rate : 0.263 FPS
Count of elements : 1604
Stream size : 14.0 MiB (0%)
Title : German
Language : German
Default : No
Forced : No

Text #17
ID : 19
Format : PGS
Muxing mode : zlib
Codec ID : S_HDMV/PGS
Codec ID/Info : Picture based subtitle format used on BDs/HD-DVDs
Duration : 1 h 41 min
Bit rate : 16.4 kb/s
Frame rate : 0.188 FPS
Count of elements : 1150
Stream size : 11.9 MiB (0%)
Title : Greek
Language : Greek
Default : No
Forced : No

Text #18
ID : 20
Format : PGS
Muxing mode : zlib
Codec ID : S_HDMV/PGS
Codec ID/Info : Picture based subtitle format used on BDs/HD-DVDs
Duration : 1 h 41 min
Bit rate : 13.0 kb/s
Frame rate : 0.284 FPS
Count of elements : 1734
Stream size : 9.44 MiB (0%)
Title : Hebrew
Language : Hebrew
Default : No
Forced : No

Text #19
ID : 21
Format : PGS
Muxing mode : zlib
Codec ID : S_HDMV/PGS
Codec ID/Info : Picture based subtitle format used on BDs/HD-DVDs
Duration : 1 h 41 min
Bit rate : 15.3 kb/s
Frame rate : 0.273 FPS
Count of elements : 1666
Stream size : 11.1 MiB (0%)
Title : Hindi
Language : Hindi
Default : No
Forced : No

Text #20
ID : 22
Format : PGS
Muxing mode : zlib
Codec ID : S_HDMV/PGS
Codec ID/Info : Picture based subtitle format used on BDs/HD-DVDs
Duration : 1 h 43 min
Bit rate : 15.2 kb/s
Frame rate : 0.208 FPS
Count of elements : 1294
Stream size : 11.3 MiB (0%)
Title : Hungarian
Language : Hungarian
Default : No
Forced : No

Text #21
ID : 23
Format : PGS
Muxing mode : zlib
Codec ID : S_HDMV/PGS
Codec ID/Info : Picture based subtitle format used on BDs/HD-DVDs
Duration : 1 h 41 min
Bit rate : 19.4 kb/s
Frame rate : 0.271 FPS
Count of elements : 1652
Stream size : 14.2 MiB (0%)
Title : Icelandic
Language : Icelandic
Default : No
Forced : No

Text #22
ID : 24
Format : PGS
Muxing mode : zlib
Codec ID : S_HDMV/PGS
Codec ID/Info : Picture based subtitle format used on BDs/HD-DVDs
Duration : 1 h 41 min
Bit rate : 20.6 kb/s
Frame rate : 0.284 FPS
Count of elements : 1734
Stream size : 15.0 MiB (0%)
Title : Indonesian
Language : Indonesian
Default : No
Forced : No

Text #23
ID : 25
Format : PGS
Muxing mode : zlib
Codec ID : S_HDMV/PGS
Codec ID/Info : Picture based subtitle format used on BDs/HD-DVDs
Duration : 1 h 41 min
Bit rate : 19.3 kb/s
Frame rate : 0.270 FPS
Count of elements : 1650
Stream size : 14.0 MiB (0%)
Title : Italian
Language : Italian
Default : No
Forced : No

Text #24
ID : 26
Format : PGS
Muxing mode : zlib
Codec ID : S_HDMV/PGS
Codec ID/Info : Picture based subtitle format used on BDs/HD-DVDs
Duration : 1 h 35 min
Bit rate : 12.9 kb/s
Frame rate : 0.248 FPS
Count of elements : 1417
Stream size : 8.82 MiB (0%)
Title : Japanese
Language : Japanese
Default : No
Forced : No

Text #25
ID : 27
Format : PGS
Muxing mode : zlib
Codec ID : S_HDMV/PGS
Codec ID/Info : Picture based subtitle format used on BDs/HD-DVDs
Duration : 1 h 43 min
Bit rate : 9 768 b/s
Frame rate : 0.276 FPS
Count of elements : 1722
Stream size : 7.25 MiB (0%)
Title : Korean
Language : Korean
Default : No
Forced : No

Text #26
ID : 28
Format : PGS
Muxing mode : zlib
Codec ID : S_HDMV/PGS
Codec ID/Info : Picture based subtitle format used on BDs/HD-DVDs
Duration : 1 h 41 min
Bit rate : 15.0 kb/s
Frame rate : 0.255 FPS
Count of elements : 1556
Stream size : 10.9 MiB (0%)
Title : Latvian
Language : Latvian
Default : No
Forced : No

Text #27
ID : 29
Format : PGS
Muxing mode : zlib
Codec ID : S_HDMV/PGS
Codec ID/Info : Picture based subtitle format used on BDs/HD-DVDs
Duration : 1 h 41 min
Bit rate : 18.2 kb/s
Frame rate : 0.286 FPS
Count of elements : 1748
Stream size : 13.2 MiB (0%)
Title : Lithuanian
Language : Lithuanian
Default : No
Forced : No

Text #28
ID : 30
Format : PGS
Muxing mode : zlib
Codec ID : S_HDMV/PGS
Codec ID/Info : Picture based subtitle format used on BDs/HD-DVDs
Duration : 1 h 41 min
Bit rate : 17.1 kb/s
Frame rate : 0.274 FPS
Count of elements : 1674
Stream size : 12.5 MiB (0%)
Title : Norwegian
Language : Norwegian
Default : No
Forced : No

Text #29
ID : 31
Format : PGS
Muxing mode : zlib
Codec ID : S_HDMV/PGS
Codec ID/Info : Picture based subtitle format used on BDs/HD-DVDs
Duration : 1 h 41 min
Bit rate : 22.0 kb/s
Frame rate : 0.270 FPS
Count of elements : 1650
Stream size : 16.0 MiB (0%)
Title : Malay
Language : Malay
Default : No
Forced : No

Text #30
ID : 32
Format : PGS
Muxing mode : zlib
Codec ID : S_HDMV/PGS
Codec ID/Info : Picture based subtitle format used on BDs/HD-DVDs
Duration : 1 h 41 min
Bit rate : 13.3 kb/s
Frame rate : 0.191 FPS
Count of elements : 1168
Stream size : 9.70 MiB (0%)
Title : Polish
Language : Polish
Default : No
Forced : No

Text #31
ID : 33
Format : PGS
Muxing mode : zlib
Codec ID : S_HDMV/PGS
Codec ID/Info : Picture based subtitle format used on BDs/HD-DVDs
Duration : 1 h 41 min
Bit rate : 19.2 kb/s
Frame rate : 0.271 FPS
Count of elements : 1652
Stream size : 14.0 MiB (0%)
Title : Portuguese (Iberian)
Language : Portuguese
Default : No
Forced : No

Text #32
ID : 34
Format : PGS
Muxing mode : zlib
Codec ID : S_HDMV/PGS
Codec ID/Info : Picture based subtitle format used on BDs/HD-DVDs
Duration : 1 h 43 min
Bit rate : 18.3 kb/s
Frame rate : 0.279 FPS
Count of elements : 1736
Stream size : 13.6 MiB (0%)
Title : Portuguese (Brazilian)
Language : Portuguese
Default : No
Forced : No

Text #33
ID : 35
Format : PGS
Muxing mode : zlib
Codec ID : S_HDMV/PGS
Codec ID/Info : Picture based subtitle format used on BDs/HD-DVDs
Duration : 1 h 43 min
Bit rate : 17.0 kb/s
Frame rate : 0.237 FPS
Count of elements : 1476
Stream size : 12.6 MiB (0%)
Title : Romanian
Language : Romanian
Default : No
Forced : No

Text #34
ID : 36
Format : PGS
Muxing mode : zlib
Codec ID : S_HDMV/PGS
Codec ID/Info : Picture based subtitle format used on BDs/HD-DVDs
Duration : 1 h 41 min
Bit rate : 18.7 kb/s
Frame rate : 0.272 FPS
Count of elements : 1658
Stream size : 13.6 MiB (0%)
Title : Russian
Language : Russian
Default : No
Forced : No

Text #35
ID : 37
Format : PGS
Muxing mode : zlib
Codec ID : S_HDMV/PGS
Codec ID/Info : Picture based subtitle format used on BDs/HD-DVDs
Duration : 1 h 41 min
Bit rate : 16.6 kb/s
Frame rate : 0.273 FPS
Count of elements : 1664
Stream size : 12.1 MiB (0%)
Title : Serbian
Language : Serbian
Default : No
Forced : No

Text #36
ID : 38
Format : PGS
Muxing mode : zlib
Codec ID : S_HDMV/PGS
Codec ID/Info : Picture based subtitle format used on BDs/HD-DVDs
Duration : 1 h 41 min
Bit rate : 16.6 kb/s
Frame rate : 0.271 FPS
Count of elements : 1654
Stream size : 12.1 MiB (0%)
Title : Slovenian
Language : Slovenian
Default : No
Forced : No

Text #37
ID : 39
Format : PGS
Muxing mode : zlib
Codec ID : S_HDMV/PGS
Codec ID/Info : Picture based subtitle format used on BDs/HD-DVDs
Duration : 1 h 41 min
Bit rate : 20.1 kb/s
Frame rate : 0.271 FPS
Count of elements : 1652
Stream size : 14.7 MiB (0%)
Title : Spanish (Castilian)
Language : Spanish
Default : No
Forced : No

Text #38
ID : 40
Format : PGS
Muxing mode : zlib
Codec ID : S_HDMV/PGS
Codec ID/Info : Picture based subtitle format used on BDs/HD-DVDs
Duration : 1 h 43 min
Bit rate : 19.8 kb/s
Frame rate : 0.261 FPS
Count of elements : 1624
Stream size : 14.7 MiB (0%)
Title : Spanish (Latin American)
Language : Spanish
Default : No
Forced : No

Text #39
ID : 41
Format : PGS
Muxing mode : zlib
Codec ID : S_HDMV/PGS
Codec ID/Info : Picture based subtitle format used on BDs/HD-DVDs
Duration : 1 h 43 min
Bit rate : 15.4 kb/s
Frame rate : 0.185 FPS
Count of elements : 1150
Stream size : 11.4 MiB (0%)
Title : Swedish
Language : Swedish
Default : No
Forced : No

Text #40
ID : 42
Format : PGS
Muxing mode : zlib
Codec ID : S_HDMV/PGS
Codec ID/Info : Picture based subtitle format used on BDs/HD-DVDs
Duration : 1 h 41 min
Bit rate : 20.0 kb/s
Frame rate : 0.273 FPS
Count of elements : 1666
Stream size : 14.5 MiB (0%)
Title : Tamil
Language : Tamil
Default : No
Forced : No

Text #41
ID : 43
Format : PGS
Muxing mode : zlib
Codec ID : S_HDMV/PGS
Codec ID/Info : Picture based subtitle format used on BDs/HD-DVDs
Duration : 1 h 41 min
Bit rate : 18.1 kb/s
Frame rate : 0.273 FPS
Count of elements : 1666
Stream size : 13.2 MiB (0%)
Title : Telugu
Language : Telugu
Default : No
Forced : No

Text #42
ID : 44
Format : PGS
Muxing mode : zlib
Codec ID : S_HDMV/PGS
Codec ID/Info : Picture based subtitle format used on BDs/HD-DVDs
Duration : 1 h 43 min
Bit rate : 14.6 kb/s
Frame rate : 0.268 FPS
Count of elements : 1668
Stream size : 10.8 MiB (0%)
Title : Thai
Language : Thai
Default : No
Forced : No

Text #43
ID : 45
Format : PGS
Muxing mode : zlib
Codec ID : S_HDMV/PGS
Codec ID/Info : Picture based subtitle format used on BDs/HD-DVDs
Duration : 1 h 41 min
Bit rate : 20.1 kb/s
Frame rate : 0.280 FPS
Count of elements : 1710
Stream size : 14.7 MiB (0%)
Title : Turkish
Language : Turkish
Default : No
Forced : No

Text #44
ID : 46
Format : PGS
Muxing mode : zlib
Codec ID : S_HDMV/PGS
Codec ID/Info : Picture based subtitle format used on BDs/HD-DVDs
Duration : 1 h 41 min
Bit rate : 18.8 kb/s
Frame rate : 0.273 FPS
Count of elements : 1666
Stream size : 13.7 MiB (0%)
Title : Ukrainian
Language : Ukrainian
Default : No
Forced : No

Text #45
ID : 47
Format : PGS
Muxing mode : zlib
Codec ID : S_HDMV/PGS
Codec ID/Info : Picture based subtitle format used on BDs/HD-DVDs
Duration : 1 h 43 min
Bit rate : 17.7 kb/s
Frame rate : 0.265 FPS
Count of elements : 1650
Stream size : 13.2 MiB (0%)
Title : Vietnamese
Language : Vietnamese
Default : No
Forced : No

Text #46
ID : 48
Format : PGS
Muxing mode : zlib
Codec ID : S_HDMV/PGS
Codec ID/Info : Picture based subtitle format used on BDs/HD-DVDs
Duration : 1 h 44 min
Bit rate : 53.8 kb/s
Frame rate : 0.476 FPS
Count of elements : 2986
Stream size : 40.2 MiB (1%)
Title : English (SDH) (Commentary #1)
Language : English
Default : No
Forced : No

Text #47
ID : 49
Format : PGS
Muxing mode : zlib
Codec ID : S_HDMV/PGS
Codec ID/Info : Picture based subtitle format used on BDs/HD-DVDs
Duration : 1 h 44 min
Bit rate : 44.2 kb/s
Frame rate : 0.446 FPS
Count of elements : 2794
Stream size : 33.0 MiB (0%)
Title : Danish (Commentary #1)
Language : Danish
Default : No
Forced : No

Text #48
ID : 50
Format : PGS
Muxing mode : zlib
Codec ID : S_HDMV/PGS
Codec ID/Info : Picture based subtitle format used on BDs/HD-DVDs
Duration : 1 h 44 min
Bit rate : 42.3 kb/s
Frame rate : 0.446 FPS
Count of elements : 2796
Stream size : 31.6 MiB (0%)
Title : Dutch (Commentary #1)
Language : Dutch
Default : No
Forced : No

Text #49
ID : 51
Format : PGS
Muxing mode : zlib
Codec ID : S_HDMV/PGS
Codec ID/Info : Picture based subtitle format used on BDs/HD-DVDs
Duration : 1 h 44 min
Bit rate : 41.8 kb/s
Frame rate : 0.447 FPS
Count of elements : 2804
Stream size : 31.2 MiB (0%)
Title : French (Commentary #1)
Language : French
Default : No
Forced : No

Text #50
ID : 52
Format : PGS
Muxing mode : zlib
Codec ID : S_HDMV/PGS
Codec ID/Info : Picture based subtitle format used on BDs/HD-DVDs
Duration : 1 h 44 min
Bit rate : 49.7 kb/s
Frame rate : 0.447 FPS
Count of elements : 2800
Stream size : 37.1 MiB (1%)
Title : German (Commentary #1)
Language : German
Default : No
Forced : No

Text #51
ID : 53
Format : PGS
Muxing mode : zlib
Codec ID : S_HDMV/PGS
Codec ID/Info : Picture based subtitle format used on BDs/HD-DVDs
Duration : 1 h 44 min
Bit rate : 43.8 kb/s
Frame rate : 0.447 FPS
Count of elements : 2802
Stream size : 32.7 MiB (0%)
Title : Italian (Commentary #1)
Language : Italian
Default : No
Forced : No

Text #52
ID : 54
Format : PGS
Muxing mode : zlib
Codec ID : S_HDMV/PGS
Codec ID/Info : Picture based subtitle format used on BDs/HD-DVDs
Duration : 1 h 44 min
Bit rate : 44.7 kb/s
Frame rate : 0.447 FPS
Count of elements : 2804
Stream size : 33.4 MiB (0%)
Title : Portuguese (Brazilian) (Commentary #1)
Language : Portuguese
Default : No
Forced : No

Text #53
ID : 55
Format : PGS
Muxing mode : zlib
Codec ID : S_HDMV/PGS
Codec ID/Info : Picture based subtitle format used on BDs/HD-DVDs
Duration : 1 h 44 min
Bit rate : 47.7 kb/s
Frame rate : 0.447 FPS
Count of elements : 2802
Stream size : 35.7 MiB (1%)
Title : Spanish (Latin American) (Commentary #1)
Language : Spanish
Default : No
Forced : No

Text #54
ID : 56
Format : PGS
Muxing mode : zlib
Codec ID : S_HDMV/PGS
Codec ID/Info : Picture based subtitle format used on BDs/HD-DVDs
Duration : 1 h 44 min
Bit rate : 68.3 kb/s
Frame rate : 0.565 FPS
Count of elements : 3552
Stream size : 51.2 MiB (1%)
Title : English (SDH) (Commentary #2)
Language : English
Default : No
Forced : No

Text #55
ID : 57
Format : PGS
Muxing mode : zlib
Codec ID : S_HDMV/PGS
Codec ID/Info : Picture based subtitle format used on BDs/HD-DVDs
Duration : 1 h 44 min
Bit rate : 54.1 kb/s
Frame rate : 0.541 FPS
Count of elements : 3402
Stream size : 40.5 MiB (1%)
Title : Danish (Commentary #2)
Language : Danish
Default : No
Forced : No

Text #56
ID : 58
Format : PGS
Muxing mode : zlib
Codec ID : S_HDMV/PGS
Codec ID/Info : Picture based subtitle format used on BDs/HD-DVDs
Duration : 1 h 44 min
Bit rate : 53.8 kb/s
Frame rate : 0.534 FPS
Count of elements : 3356
Stream size : 40.3 MiB (1%)
Title : Dutch (Commentary #2)
Language : Dutch
Default : No
Forced : No

Text #57
ID : 59
Format : PGS
Muxing mode : zlib
Codec ID : S_HDMV/PGS
Codec ID/Info : Picture based subtitle format used on BDs/HD-DVDs
Duration : 1 h 44 min
Bit rate : 55.8 kb/s
Frame rate : 0.542 FPS
Count of elements : 3408
Stream size : 41.9 MiB (1%)
Title : French (Commentary #2)
Language : French
Default : No
Forced : No

Text #58
ID : 60
Format : PGS
Muxing mode : zlib
Codec ID : S_HDMV/PGS
Codec ID/Info : Picture based subtitle format used on BDs/HD-DVDs
Duration : 1 h 44 min
Bit rate : 57.9 kb/s
Frame rate : 0.541 FPS
Count of elements : 3402
Stream size : 43.4 MiB (1%)
Title : German (Commentary #2)
Language : German
Default : No
Forced : No

Text #59
ID : 61
Format : PGS
Muxing mode : zlib
Codec ID : S_HDMV/PGS
Codec ID/Info : Picture based subtitle format used on BDs/HD-DVDs
Duration : 1 h 44 min
Bit rate : 57.1 kb/s
Frame rate : 0.542 FPS
Count of elements : 3410
Stream size : 42.8 MiB (1%)
Title : Portuguese (Brazilian) (Commentary #2)
Language : Portuguese
Default : No
Forced : No

Text #60
ID : 62
Format : PGS
Muxing mode : zlib
Codec ID : S_HDMV/PGS
Codec ID/Info : Picture based subtitle format used on BDs/HD-DVDs
Duration : 1 h 44 min
Bit rate : 59.2 kb/s
Frame rate : 0.542 FPS
Count of elements : 3406
Stream size : 44.4 MiB (1%)
Title : Spanish (Latin American) (Commentary #2)
Language : Spanish
Default : No
Forced : No

Menu
00:00:00.000 : en:Chapter 1
00:05:24.407 : en:Chapter 2
00:09:17.974 : en:Chapter 3
00:14:19.067 : en:Chapter 4
00:18:07.545 : en:Chapter 5
00:20:03.786 : en:Chapter 6
00:22:38.148 : en:Chapter 7
00:25:17.015 : en:Chapter 8
00:29:42.656 : en:Chapter 9
00:33:38.266 : en:Chapter 10
00:38:29.098 : en:Chapter 11
00:41:12.595 : en:Chapter 12
00:45:19.008 : en:Chapter 13
00:48:50.177 : en:Chapter 14
00:52:56.632 : en:Chapter 15
00:57:30.280 : en:Chapter 16
00:59:26.730 : en:Chapter 17
01:01:30.145 : en:Chapter 18
01:05:03.608 : en:Chapter 19
01:06:20.268 : en:Chapter 20
01:09:34.962 : en:Chapter 21
01:11:15.688 : en:Chapter 22
01:15:44.123 : en:Chapter 23
01:18:29.204 : en:Chapter 24
01:23:09.276 : en:Chapter 25
01:27:50.390 : en:Chapter 26
01:33:00.366 : en:Chapter 27
01:37:08.948 : en:Chapter 28

Files