War for the Planet of the Apes 2017-2160p BluRay HDR10 10 bit Encode AV1 DTS 5 1-R&H

After the apes suffer unimaginable losses, Caesar wrestles with his darker instincts and begins his own mythic quest to avenge his kind.

Year: 2017
Duration: 140 min
Release date: Friday 14th July 2017
Genre: Action, Adventure, Drama, Sci-Fi, Thriller

Rating

7.5/10
(189566 Votes)

0

Your Rating

Stars:
Andy Serkis, Woody Harrelson, Steve Zahn, Karin Konoval

https://www.imdb.com/title/tt3450958/ https://i.ibb.co/YbN1bkh/War-for-the-Planet-of-the-Apes.jpg

Source: War.for.the.Planet.of.the.Apes.2017.UHD.BluRay.2160p.TrueHD.Atmos.7.1.HEVC.REMUX-FraMeSToR (Thanks!)

General
Unique ID : 41116653718749530113868495345967040244 (0x1EEEC78AC175F5A84599C38E30D606F4)
Complete name : E:\War.for.the.Planet.of.the.Apes.2017-2160p.BluRay.HDR10.10.bit.Encode.AV1.DTS.5.1-R&H.mkv
Format : Matroska
Format version : Version 4
File size : 8.89 GiB
Duration : 2 h 20 min
Overall bit rate : 9 081 kb/s
Frame rate : 23.976 FPS
Movie name : War for the Planet of the Apes 4K
Encoded date : 2024-07-08 22:11:14 UTC
Writing application : mkvmerge v85.0 ('Shame For You') 64-bit
Writing library : libebml v1.4.5 + libmatroska v1.7.1

Video
ID : 1
Format : AV1
Format/Info : AOMedia Video 1
Format profile : Main@L5.0
HDR format : SMPTE ST 2086, HDR10 compatible
Codec ID : V_AV1
Duration : 2 h 20 min
Bit rate : 7 827 kb/s
Width : 3 840 pixels
Height : 1 600 pixels
Display aspect ratio : 2.40:1
Frame rate mode : Constant
Frame rate : 23.976 (24000/1001) FPS
Color space : YUV
Chroma subsampling : 4:2:0 (Type 2)
Bit depth : 10 bits
Bits/(Pixel*Frame) : 0.053
Stream size : 7.66 GiB (86%)
Default : Yes
Forced : No
Color range : Limited
Color primaries : BT.2020
Transfer characteristics : PQ
Matrix coefficients : BT.2020 non-constant
Mastering display color pri : Display P3
Mastering display luminance : min: 0.0050 cd/m2, max: 1000 cd/m2

Audio
ID : 2
Format : DTS
Format/Info : Digital Theater Systems
Codec ID : A_DTS
Duration : 2 h 20 min
Bit rate mode : Constant
Bit rate : 1 002 kb/s
Channel(s) : 6 channels
Channel layout : C L R Ls Rs LFE
Sampling rate : 48.0 kHz
Frame rate : 93.750 FPS (512 SPF)
Bit depth : 16 bits
Compression mode : Lossy
Stream size : 1 004 MiB (11%)
Language : English
Default : No
Forced : No

Text #1
ID : 3
Format : PGS
Muxing mode : zlib
Codec ID : S_HDMV/PGS
Codec ID/Info : Picture based subtitle format used on BDs/HD-DVDs
Duration : 1 h 42 min
Bit rate : 2 563 b/s
Frame rate : 0.062 FPS
Count of elements : 383
Stream size : 1.88 MiB (0%)
Title : English (Forced only)
Language : English
Default : Yes
Forced : Yes

Text #2
ID : 4
Format : PGS
Muxing mode : zlib
Codec ID : S_HDMV/PGS
Codec ID/Info : Picture based subtitle format used on BDs/HD-DVDs
Duration : 2 h 9 min
Bit rate : 14.1 kb/s
Frame rate : 0.261 FPS
Count of elements : 2022
Stream size : 13.1 MiB (0%)
Title : English (SDH)
Language : English
Default : No
Forced : No

Text #3
ID : 5
Format : PGS
Muxing mode : zlib
Codec ID : S_HDMV/PGS
Codec ID/Info : Picture based subtitle format used on BDs/HD-DVDs
Duration : 2 h 18 min
Bit rate : 11.5 kb/s
Frame rate : 0.187 FPS
Count of elements : 1560
Stream size : 11.5 MiB (0%)
Title : Spanish (Latin American)
Language : Spanish
Default : No
Forced : No

Text #4
ID : 6
Format : PGS
Muxing mode : zlib
Codec ID : S_HDMV/PGS
Codec ID/Info : Picture based subtitle format used on BDs/HD-DVDs
Duration : 2 h 18 min
Bit rate : 10.6 kb/s
Frame rate : 0.186 FPS
Count of elements : 1550
Stream size : 10.5 MiB (0%)
Title : French
Language : French
Default : No
Forced : No

Text #5
ID : 7
Format : PGS
Muxing mode : zlib
Codec ID : S_HDMV/PGS
Codec ID/Info : Picture based subtitle format used on BDs/HD-DVDs
Duration : 2 h 18 min
Bit rate : 10.8 kb/s
Frame rate : 0.185 FPS
Count of elements : 1538
Stream size : 10.8 MiB (0%)
Title : Spanish (Castilian)
Language : Spanish
Default : No
Forced : No

Text #6
ID : 8
Format : PGS
Muxing mode : zlib
Codec ID : S_HDMV/PGS
Codec ID/Info : Picture based subtitle format used on BDs/HD-DVDs
Duration : 2 h 18 min
Bit rate : 10.2 kb/s
Frame rate : 0.165 FPS
Count of elements : 1374
Stream size : 10.1 MiB (0%)
Title : Danish
Language : Danish
Default : No
Forced : No

Text #7
ID : 9
Format : PGS
Muxing mode : zlib
Codec ID : S_HDMV/PGS
Codec ID/Info : Picture based subtitle format used on BDs/HD-DVDs
Duration : 2 h 18 min
Bit rate : 10.1 kb/s
Frame rate : 0.166 FPS
Count of elements : 1384
Stream size : 10.1 MiB (0%)
Title : Dutch
Language : Dutch
Default : No
Forced : No

Text #8
ID : 10
Format : PGS
Muxing mode : zlib
Codec ID : S_HDMV/PGS
Codec ID/Info : Picture based subtitle format used on BDs/HD-DVDs
Duration : 2 h 18 min
Bit rate : 10.8 kb/s
Frame rate : 0.188 FPS
Count of elements : 1564
Stream size : 10.7 MiB (0%)
Title : Finnish
Language : Finnish
Default : No
Forced : No

Text #9
ID : 11
Format : PGS
Muxing mode : zlib
Codec ID : S_HDMV/PGS
Codec ID/Info : Picture based subtitle format used on BDs/HD-DVDs
Duration : 2 h 18 min
Bit rate : 12.0 kb/s
Frame rate : 0.179 FPS
Count of elements : 1490
Stream size : 11.9 MiB (0%)
Title : German
Language : German
Default : No
Forced : No

Text #10
ID : 12
Format : PGS
Muxing mode : zlib
Codec ID : S_HDMV/PGS
Codec ID/Info : Picture based subtitle format used on BDs/HD-DVDs
Duration : 2 h 18 min
Bit rate : 11.2 kb/s
Frame rate : 0.187 FPS
Count of elements : 1560
Stream size : 11.1 MiB (0%)
Title : Italian
Language : Italian
Default : No
Forced : No

Text #11
ID : 13
Format : PGS
Muxing mode : zlib
Codec ID : S_HDMV/PGS
Codec ID/Info : Picture based subtitle format used on BDs/HD-DVDs
Duration : 2 h 18 min
Bit rate : 10.3 kb/s
Frame rate : 0.186 FPS
Count of elements : 1554
Stream size : 10.2 MiB (0%)
Title : Norwegian
Language : Norwegian
Default : No
Forced : No

Text #12
ID : 14
Format : PGS
Muxing mode : zlib
Codec ID : S_HDMV/PGS
Codec ID/Info : Picture based subtitle format used on BDs/HD-DVDs
Duration : 2 h 18 min
Bit rate : 11.0 kb/s
Frame rate : 0.187 FPS
Count of elements : 1560
Stream size : 11.0 MiB (0%)
Title : Swedish
Language : Swedish
Default : No
Forced : No

Text #13
ID : 15
Format : PGS
Muxing mode : zlib
Codec ID : S_HDMV/PGS
Codec ID/Info : Picture based subtitle format used on BDs/HD-DVDs
Duration : 2 h 18 min
Bit rate : 9 241 b/s
Frame rate : 0.190 FPS
Count of elements : 1582
Stream size : 9.18 MiB (0%)
Title : Chinese (Cantonese)
Language : Chinese
Default : No
Forced : No

Text #14
ID : 16
Format : PGS
Muxing mode : zlib
Codec ID : S_HDMV/PGS
Codec ID/Info : Picture based subtitle format used on BDs/HD-DVDs
Duration : 2 h 18 min
Bit rate : 9 545 b/s
Frame rate : 0.186 FPS
Count of elements : 1548
Stream size : 9.48 MiB (0%)
Title : Czech
Language : Czech
Default : No
Forced : No

Text #15
ID : 17
Format : UTF-8
Codec ID : S_TEXT/UTF8
Codec ID/Info : UTF-8 Plain Text
Duration : 2 h 18 min
Bit rate : 17 b/s
Frame rate : 0.093 FPS
Count of elements : 779
Stream size : 18.1 KiB (0%)
Title : Portuguese (Iberian)
Language : Portuguese
Default : No
Forced : No

Text #16
ID : 18
Format : PGS
Muxing mode : zlib
Codec ID : S_HDMV/PGS
Codec ID/Info : Picture based subtitle format used on BDs/HD-DVDs
Duration : 2 h 18 min
Bit rate : 8 805 b/s
Frame rate : 0.190 FPS
Count of elements : 1582
Stream size : 8.75 MiB (0%)
Title : Chinese (Mandarin Traditional)
Language : Chinese
Default : No
Forced : No

Text #17
ID : 19
Format : PGS
Muxing mode : zlib
Codec ID : S_HDMV/PGS
Codec ID/Info : Picture based subtitle format used on BDs/HD-DVDs
Duration : 2 h 18 min
Bit rate : 9 388 b/s
Frame rate : 0.183 FPS
Count of elements : 1522
Stream size : 9.33 MiB (0%)
Title : Polish
Language : Polish
Default : No
Forced : No

Text #18
ID : 20
Format : PGS
Muxing mode : zlib
Codec ID : S_HDMV/PGS
Codec ID/Info : Picture based subtitle format used on BDs/HD-DVDs
Duration : 2 h 18 min
Bit rate : 8 728 b/s
Frame rate : 0.177 FPS
Count of elements : 1472
Stream size : 8.67 MiB (0%)
Title : Japanese
Language : Japanese
Default : No
Forced : No

Text #19
ID : 21
Format : PGS
Muxing mode : zlib
Codec ID : S_HDMV/PGS
Codec ID/Info : Picture based subtitle format used on BDs/HD-DVDs
Duration : 2 h 12 min
Bit rate : 60.0 kb/s
Frame rate : 0.491 FPS
Count of elements : 3914
Stream size : 57.0 MiB (1%)
Title : English (Commentary)
Language : English
Default : No
Forced : No

Text #20
ID : 22
Format : PGS
Muxing mode : zlib
Codec ID : S_HDMV/PGS
Codec ID/Info : Picture based subtitle format used on BDs/HD-DVDs
Duration : 2 h 19 min
Bit rate : 50.5 kb/s
Frame rate : 0.445 FPS
Count of elements : 3738
Stream size : 50.5 MiB (1%)
Title : Spanish (Commentary)
Language : Spanish
Default : No
Forced : No

Text #21
ID : 23
Format : PGS
Muxing mode : zlib
Codec ID : S_HDMV/PGS
Codec ID/Info : Picture based subtitle format used on BDs/HD-DVDs
Duration : 2 h 19 min
Bit rate : 48.4 kb/s
Frame rate : 0.442 FPS
Count of elements : 3714
Stream size : 48.5 MiB (1%)
Title : French (Commentary)
Language : French
Default : No
Forced : No

Text #22
ID : 24
Format : PGS
Muxing mode : zlib
Codec ID : S_HDMV/PGS
Codec ID/Info : Picture based subtitle format used on BDs/HD-DVDs
Duration : 2 h 19 min
Bit rate : 50.8 kb/s
Frame rate : 0.445 FPS
Count of elements : 3736
Stream size : 50.9 MiB (1%)
Title : Spanish (Commentary)
Language : Spanish
Default : No
Forced : No

Text #23
ID : 25
Format : PGS
Muxing mode : zlib
Codec ID : S_HDMV/PGS
Codec ID/Info : Picture based subtitle format used on BDs/HD-DVDs
Duration : 2 h 19 min
Bit rate : 50.4 kb/s
Frame rate : 0.445 FPS
Count of elements : 3734
Stream size : 50.5 MiB (1%)
Title : Danish (Commentary)
Language : Danish
Default : No
Forced : No

Text #24
ID : 26
Format : PGS
Muxing mode : zlib
Codec ID : S_HDMV/PGS
Codec ID/Info : Picture based subtitle format used on BDs/HD-DVDs
Duration : 2 h 19 min
Bit rate : 47.9 kb/s
Frame rate : 0.443 FPS
Count of elements : 3718
Stream size : 48.0 MiB (1%)
Title : Dutch (Commentary)
Language : Dutch
Default : No
Forced : No

Text #25
ID : 27
Format : PGS
Muxing mode : zlib
Codec ID : S_HDMV/PGS
Codec ID/Info : Picture based subtitle format used on BDs/HD-DVDs
Duration : 2 h 19 min
Bit rate : 45.3 kb/s
Frame rate : 0.445 FPS
Count of elements : 3738
Stream size : 45.3 MiB (0%)
Title : Finnish (Commentary)
Language : Finnish
Default : No
Forced : No

Text #26
ID : 28
Format : PGS
Muxing mode : zlib
Codec ID : S_HDMV/PGS
Codec ID/Info : Picture based subtitle format used on BDs/HD-DVDs
Duration : 2 h 19 min
Bit rate : 51.9 kb/s
Frame rate : 0.444 FPS
Count of elements : 3728
Stream size : 51.9 MiB (1%)
Title : German (Commentary)
Language : German
Default : No
Forced : No

Text #27
ID : 29
Format : PGS
Muxing mode : zlib
Codec ID : S_HDMV/PGS
Codec ID/Info : Picture based subtitle format used on BDs/HD-DVDs
Duration : 2 h 19 min
Bit rate : 48.3 kb/s
Frame rate : 0.445 FPS
Count of elements : 3738
Stream size : 48.3 MiB (1%)
Title : Italian (Commentary)
Language : Italian
Default : No
Forced : No

Text #28
ID : 30
Format : PGS
Muxing mode : zlib
Codec ID : S_HDMV/PGS
Codec ID/Info : Picture based subtitle format used on BDs/HD-DVDs
Duration : 2 h 19 min
Bit rate : 49.6 kb/s
Frame rate : 0.445 FPS
Count of elements : 3738
Stream size : 49.6 MiB (1%)
Title : Norwegian (Commentary)
Language : Norwegian
Default : No
Forced : No

Text #29
ID : 31
Format : PGS
Muxing mode : zlib
Codec ID : S_HDMV/PGS
Codec ID/Info : Picture based subtitle format used on BDs/HD-DVDs
Duration : 2 h 19 min
Bit rate : 47.7 kb/s
Frame rate : 0.445 FPS
Count of elements : 3738
Stream size : 47.7 MiB (1%)
Title : Swedish (Commentary)
Language : Swedish
Default : No
Forced : No

Text #30
ID : 32
Format : PGS
Muxing mode : zlib
Codec ID : S_HDMV/PGS
Codec ID/Info : Picture based subtitle format used on BDs/HD-DVDs
Duration : 2 h 19 min
Bit rate : 32.3 kb/s
Frame rate : 0.341 FPS
Count of elements : 2864
Stream size : 32.4 MiB (0%)
Title : Japanese (Commentary)
Language : Japanese
Default : No
Forced : No

Menu
00:00:00.000 : en:Chapter 01
00:05:05.889 : en:Chapter 02
00:09:06.713 : en:Chapter 03
00:12:14.108 : en:Chapter 04
00:18:21.017 : en:Chapter 05
00:25:04.503 : en:Chapter 06
00:30:17.399 : en:Chapter 07
00:34:13.093 : en:Chapter 08
00:37:46.347 : en:Chapter 09
00:42:54.447 : en:Chapter 10
00:49:31.802 : en:Chapter 11
00:54:14.626 : en:Chapter 12
00:58:49.818 : en:Chapter 13
01:05:24.129 : en:Chapter 14
01:10:18.381 : en:Chapter 15
01:14:53.823 : en:Chapter 16
01:18:59.193 : en:Chapter 17
01:25:35.672 : en:Chapter 18
01:29:37.372 : en:Chapter 19
01:34:22.824 : en:Chapter 20
01:39:27.712 : en:Chapter 21
01:43:48.222 : en:Chapter 22
01:48:45.394 : en:Chapter 23
01:55:20.580 : en:Chapter 24
01:58:04.703 : en:Chapter 25
02:02:33.930 : en:Chapter 26
02:05:54.797 : en:Chapter 27
02:12:51.213 : en:Chapter 28

Files