Apocalypse Now 1979 Final Cut 2160p BluRay HDR10 10 bit Encode AV1 DTS 5 1-R&H

During the on-going Vietnam War, Captain Willard is sent on a dangerous mission into Cambodia to assassinate a renegade Green Beret who has set himself up as a God among a local tribe.

Year: 1979
Duration: 153 min
Release date: Wednesday 15th August 1979
Genre: Drama, War

Rating

8.6/10
(176989 Votes)

0

Your Rating

Stars:
Marlon Brando, Martin Sheen, Robert Duvall, Frederic Forrest

https://www.imdb.com/title/tt0078788/ https://i.ibb.co/7rdPPN1/Apocalypse-Now.jpg

Source: Apocalypse.Now.1979.Final.Cut.UHD.BluRay.2160p.TrueHD.Atmos.7.1.DV.HEVC.HYBRID.REMUX-FraMeSToR (Thanks!)

General
Unique ID : 316022362512784729380965471166189690887 (0xEDBFB16F64043E1C6FE7BF740BAE6007)
Complete name : G:\Apocalypse.Now.1979.Final.Cut.2160p.BluRay.HDR10.10.bit.Encode.AV1.DTS.5.1-R&H.mkv
Format : Matroska
Format version : Version 4
File size : 12.7 GiB
Duration : 3 h 1 min
Overall bit rate : 10.0 Mb/s
Frame rate : 23.976 FPS
Movie name : Apocalypse Now (1979) Final Cut DV
Encoded date : 2024-06-30 18:56:17 UTC
Writing application : mkvmerge v85.0 ('Shame For You') 64-bit
Writing library : libebml v1.4.5 + libmatroska v1.7.1

Video
ID : 1
Format : AV1
Format/Info : AOMedia Video 1
Format profile : Main@L5.0
HDR format : SMPTE ST 2086, HDR10 compatible
Codec ID : V_AV1
Duration : 3 h 1 min
Bit rate : 8 915 kb/s
Width : 3 840 pixels
Height : 2 160 pixels
Display aspect ratio : 16:9
Frame rate mode : Constant
Frame rate : 23.976 (24000/1001) FPS
Color space : YUV
Chroma subsampling : 4:2:0 (Type 2)
Bit depth : 10 bits
Bits/(Pixel*Frame) : 0.045
Stream size : 11.3 GiB (89%)
Default : Yes
Forced : No
Color range : Limited
Color primaries : BT.2020
Transfer characteristics : PQ
Matrix coefficients : BT.2020 non-constant
Mastering display color pri : Display P3
Mastering display luminance : min: 0.0050 cd/m2, max: 4000 cd/m2

Audio
ID : 2
Format : DTS
Format/Info : Digital Theater Systems
Codec ID : A_DTS
Duration : 3 h 1 min
Bit rate mode : Constant
Bit rate : 1 002 kb/s
Channel(s) : 6 channels
Channel layout : C L R Ls Rs LFE
Sampling rate : 48.0 kHz
Frame rate : 93.750 FPS (512 SPF)
Bit depth : 16 bits
Compression mode : Lossy
Delay relative to video : 42 ms
Stream size : 1.27 GiB (10%)
Title : TrueHD Atmos 7.1
Language : English
Default : No
Forced : No

Text #1
ID : 3
Format : PGS
Muxing mode : zlib
Codec ID : S_HDMV/PGS
Codec ID/Info : Picture based subtitle format used on BDs/HD-DVDs
Duration : 2 h 51 min
Bit rate : 36.7 kb/s
Frame rate : 0.330 FPS
Count of elements : 3392
Stream size : 45.0 MiB (0%)
Title : English
Language : English
Default : No
Forced : No

Text #2
ID : 4
Format : PGS
Muxing mode : zlib
Codec ID : S_HDMV/PGS
Codec ID/Info : Picture based subtitle format used on BDs/HD-DVDs
Duration : 2 h 55 min
Bit rate : 40.2 kb/s
Frame rate : 0.368 FPS
Count of elements : 3872
Stream size : 50.5 MiB (0%)
Title : English (SDH)
Language : English
Default : No
Forced : No

Text #3
ID : 5
Format : PGS
Muxing mode : zlib
Codec ID : S_HDMV/PGS
Codec ID/Info : Picture based subtitle format used on BDs/HD-DVDs
Duration : 2 h 51 min
Bit rate : 34.4 kb/s
Frame rate : 0.332 FPS
Count of elements : 3418
Stream size : 42.3 MiB (0%)
Title : French
Language : French
Default : No
Forced : No

Text #4
ID : 6
Format : PGS
Muxing mode : zlib
Codec ID : S_HDMV/PGS
Codec ID/Info : Picture based subtitle format used on BDs/HD-DVDs
Duration : 2 h 53 min
Bit rate : 28.1 kb/s
Frame rate : 0.371 FPS
Count of elements : 3862
Stream size : 34.9 MiB (0%)
Title : German
Language : German
Default : No
Forced : No

Text #5
ID : 7
Format : PGS
Muxing mode : zlib
Codec ID : S_HDMV/PGS
Codec ID/Info : Picture based subtitle format used on BDs/HD-DVDs
Duration : 2 h 51 min
Bit rate : 23.4 kb/s
Frame rate : 0.289 FPS
Count of elements : 2962
Stream size : 28.6 MiB (0%)
Title : Italian
Language : Italian
Default : No
Forced : No

Text #6
ID : 8
Format : PGS
Muxing mode : zlib
Codec ID : S_HDMV/PGS
Codec ID/Info : Picture based subtitle format used on BDs/HD-DVDs
Duration : 2 h 51 min
Bit rate : 34.7 kb/s
Frame rate : 0.350 FPS
Count of elements : 3604
Stream size : 42.5 MiB (0%)
Title : Spanish (Latin American)
Language : Spanish
Default : No
Forced : No

Text #7
ID : 9
Format : UTF-8
Codec ID : S_TEXT/UTF8
Codec ID/Info : UTF-8 Plain Text
Duration : 2 h 51 min
Bit rate : 45 b/s
Frame rate : 0.147 FPS
Count of elements : 1511
Stream size : 56.7 KiB (0%)
Title : Portuguese (Iberian)
Language : Portuguese
Default : No
Forced : No

Menu
00:00:00.000 : en:Waiting in Saigon
00:09:23.480 : en:Intelligence Compound
00:20:22.638 : en:Willard Meets PBR Crew
00:24:09.073 : en:Search and Destroy
00:31:13.330 : en:Beach Party
00:34:09.589 : en:Helicopter Attack
00:45:01.240 : en:Kilgore Goes Surfing
00:52:03.871 : en:The Tiger in the Jungle
01:03:18.878 : en:Entertaining the Boys
01:17:01.951 : en:Kurtz Dossier
01:23:44.436 : en:Sampan Massacre
01:29:00.335 : en:Do Lung Bridge
01:38:47.130 : en:Mr. Clean's Death
01:44:30.848 : en:Arrow Attack
02:13:24.205 : en:Kurtz Compound
02:22:09.938 : en:Interrogation
02:31:03.930 : en:Chef Decapitated
02:43:31.427 : en:Caribou Sacrifice
02:50:32.389 : en:Ending

Files