Argylle 2024-2160p WEB HDR10+ 10 bit Encode AV1 DDP 5 1 Atmos-R&H

A reclusive author who writes espionage novels about a secret agent and a global spy syndicate realizes the plot of the new book she's writing starts to mirror real-world events, in real time.

Year: 2024
Duration: 139 min
Release date: Wednesday 31st January 2024
Genre: Action, Thriller

Rating

6/10
(6984 Votes)

0

Your Rating

Stars:
Henry Cavill, Daniel Singh, Dua Lipa, Ariana DeBose, Richard E. Grant, John Cena, Bryce Dallas Howard, Jason Fuchs

Source: Argylle.2024.2160p.WEB-DL.DDP5.1.Atmos.DV.HDR.H.265-FLUX (Thanks!)

General
Unique ID : 337887296356417856799097196016312779975 (0xFE32B9E776641E68D990A5F0C30404C7)
Complete name : G:\Argylle.2024-2160p.WEB.HDR10+.10.bit.Encode.AV1.DDP.5.1.Atmos-R&H.mkv
Format : Matroska
Format version : Version 4
File size : 6.31 GiB
Duration : 2 h 18 min
Overall bit rate : 6 511 kb/s
Frame rate : 23.976 FPS
Encoded date : 2024-06-26 14:16:57 UTC
Writing application : mkvmerge v85.0 ('Shame For You') 64-bit
Writing library : libebml v1.4.5 + libmatroska v1.7.1

Video
ID : 1
Format : AV1
Format/Info : AOMedia Video 1
Format profile : Main@L5.0
HDR format : SMPTE ST 2086, HDR10 compatible
Codec ID : V_AV1
Duration : 2 h 18 min
Bit rate : 5 735 kb/s
Width : 3 840 pixels
Height : 1 604 pixels
Display aspect ratio : 2.39:1
Frame rate mode : Constant
Frame rate : 23.976 (24000/1001) FPS
Color space : YUV
Chroma subsampling : 4:2:0 (Type 2)
Bit depth : 10 bits
Bits/(Pixel*Frame) : 0.039
Stream size : 5.55 GiB (88%)
Default : Yes
Forced : No
Color range : Limited
Color primaries : BT.2020
Transfer characteristics : PQ
Matrix coefficients : BT.2020 non-constant
Mastering display color pri : Display P3
Mastering display luminance : min: 0.0050 cd/m2, max: 1000 cd/m2
Maximum Content Light Level : 831 cd/m2
Maximum Frame-Average Light : 346 cd/m2

Audio
ID : 2
Format : E-AC-3 JOC
Format/Info : Enhanced AC-3 with Joint Object Coding
Commercial name : Dolby Digital Plus with Dolby Atmos
Codec ID : A_EAC3
Duration : 2 h 18 min
Bit rate mode : Constant
Bit rate : 768 kb/s
Channel(s) : 6 channels
Channel layout : L R C LFE Ls Rs
Sampling rate : 48.0 kHz
Frame rate : 31.250 FPS (1536 SPF)
Compression mode : Lossy
Stream size : 762 MiB (12%)
Language : English
Service kind : Complete Main
Default : No
Forced : No
Complexity index : 16
Number of dynamic objects : 15
Bed channel count : 1 channel
Bed channel configuration : LFE
Dialog Normalization : -26 dB
compr : -0.28 dB
dialnorm_Average : -26 dB
dialnorm_Minimum : -26 dB
dialnorm_Maximum : -26 dB

Text #1
ID : 3
Format : UTF-8
Codec ID : S_TEXT/UTF8
Codec ID/Info : UTF-8 Plain Text
Duration : 2 h 10 min
Bit rate : 56 b/s
Frame rate : 0.219 FPS
Count of elements : 1713
Stream size : 54.3 KiB (0%)
Language : English
Default : No
Forced : No

Text #2
ID : 4
Format : UTF-8
Codec ID : S_TEXT/UTF8
Codec ID/Info : UTF-8 Plain Text
Duration : 2 h 15 min
Bit rate : 65 b/s
Frame rate : 0.254 FPS
Count of elements : 2059
Stream size : 65.3 KiB (0%)
Title : SDH
Language : English
Default : No
Forced : No

Text #3
ID : 5
Format : UTF-8
Codec ID : S_TEXT/UTF8
Codec ID/Info : UTF-8 Plain Text
Duration : 2 h 17 min
Bit rate : 84 b/s
Frame rate : 0.216 FPS
Count of elements : 1777
Stream size : 84.9 KiB (0%)
Language : Arabic
Default : No
Forced : No

Text #4
ID : 6
Format : UTF-8
Codec ID : S_TEXT/UTF8
Codec ID/Info : UTF-8 Plain Text
Duration : 2 h 17 min
Bit rate : 76 b/s
Frame rate : 0.164 FPS
Count of elements : 1346
Stream size : 77.0 KiB (0%)
Language : Bulgarian
Default : No
Forced : No

Text #5
ID : 7
Format : UTF-8
Codec ID : S_TEXT/UTF8
Codec ID/Info : UTF-8 Plain Text
Duration : 2 h 17 min
Bit rate : 48 b/s
Frame rate : 0.216 FPS
Count of elements : 1775
Stream size : 48.4 KiB (0%)
Title : Simplified
Language : Chinese (Simplified)
Default : No
Forced : No

Text #6
ID : 8
Format : UTF-8
Codec ID : S_TEXT/UTF8
Codec ID/Info : UTF-8 Plain Text
Duration : 2 h 17 min
Bit rate : 45 b/s
Frame rate : 0.215 FPS
Count of elements : 1777
Stream size : 45.6 KiB (0%)
Title : Traditional
Language : Chinese (Traditional)
Default : No
Forced : No

Text #7
ID : 9
Format : UTF-8
Codec ID : S_TEXT/UTF8
Codec ID/Info : UTF-8 Plain Text
Duration : 2 h 17 min
Bit rate : 54 b/s
Frame rate : 0.199 FPS
Count of elements : 1644
Stream size : 54.6 KiB (0%)
Language : Czech
Default : No
Forced : No

Text #8
ID : 10
Format : UTF-8
Codec ID : S_TEXT/UTF8
Codec ID/Info : UTF-8 Plain Text
Duration : 2 h 17 min
Bit rate : 49 b/s
Frame rate : 0.168 FPS
Count of elements : 1379
Stream size : 50.2 KiB (0%)
Language : Danish
Default : No
Forced : No

Text #9
ID : 11
Format : UTF-8
Codec ID : S_TEXT/UTF8
Codec ID/Info : UTF-8 Plain Text
Duration : 2 h 17 min
Bit rate : 55 b/s
Frame rate : 0.189 FPS
Count of elements : 1559
Stream size : 55.6 KiB (0%)
Language : German
Default : No
Forced : No

Text #10
ID : 12
Format : UTF-8
Codec ID : S_TEXT/UTF8
Codec ID/Info : UTF-8 Plain Text
Duration : 2 h 17 min
Bit rate : 91 b/s
Frame rate : 0.181 FPS
Count of elements : 1492
Stream size : 92.7 KiB (0%)
Language : Greek
Default : No
Forced : No

Text #11
ID : 13
Format : UTF-8
Codec ID : S_TEXT/UTF8
Codec ID/Info : UTF-8 Plain Text
Duration : 2 h 17 min
Bit rate : 53 b/s
Frame rate : 0.214 FPS
Count of elements : 1767
Stream size : 54.1 KiB (0%)
Title : Latin American
Language : Spanish (Latin America)
Default : No
Forced : No

Text #12
ID : 14
Format : UTF-8
Codec ID : S_TEXT/UTF8
Codec ID/Info : UTF-8 Plain Text
Duration : 2 h 17 min
Bit rate : 51 b/s
Frame rate : 0.210 FPS
Count of elements : 1725
Stream size : 51.5 KiB (0%)
Language : Spanish (ES)
Default : No
Forced : No

Text #13
ID : 15
Format : UTF-8
Codec ID : S_TEXT/UTF8
Codec ID/Info : UTF-8 Plain Text
Duration : 2 h 17 min
Bit rate : 53 b/s
Frame rate : 0.210 FPS
Count of elements : 1730
Stream size : 54.0 KiB (0%)
Language : Estonian
Default : No
Forced : No

Text #14
ID : 16
Format : UTF-8
Codec ID : S_TEXT/UTF8
Codec ID/Info : UTF-8 Plain Text
Duration : 2 h 17 min
Bit rate : 52 b/s
Frame rate : 0.203 FPS
Count of elements : 1673
Stream size : 52.7 KiB (0%)
Language : Finnish
Default : No
Forced : No

Text #15
ID : 17
Format : UTF-8
Codec ID : S_TEXT/UTF8
Codec ID/Info : UTF-8 Plain Text
Duration : 2 h 17 min
Bit rate : 49 b/s
Frame rate : 0.228 FPS
Count of elements : 1877
Stream size : 49.7 KiB (0%)
Title : Canadian
Language : French (CA)
Default : No
Forced : No

Text #16
ID : 18
Format : UTF-8
Codec ID : S_TEXT/UTF8
Codec ID/Info : UTF-8 Plain Text
Duration : 2 h 17 min
Bit rate : 49 b/s
Frame rate : 0.228 FPS
Count of elements : 1877
Stream size : 49.7 KiB (0%)
Language : French (FR)
Default : No
Forced : No

Text #17
ID : 19
Format : UTF-8
Codec ID : S_TEXT/UTF8
Codec ID/Info : UTF-8 Plain Text
Duration : 2 h 17 min
Bit rate : 81 b/s
Frame rate : 0.216 FPS
Count of elements : 1776
Stream size : 81.8 KiB (0%)
Language : Hebrew
Default : No
Forced : No

Text #18
ID : 20
Format : UTF-8
Codec ID : S_TEXT/UTF8
Codec ID/Info : UTF-8 Plain Text
Duration : 2 h 17 min
Bit rate : 155 b/s
Frame rate : 0.215 FPS
Count of elements : 1777
Stream size : 157 KiB (0%)
Language : Hindi
Default : No
Forced : No

Text #19
ID : 21
Format : UTF-8
Codec ID : S_TEXT/UTF8
Codec ID/Info : UTF-8 Plain Text
Duration : 2 h 17 min
Bit rate : 53 b/s
Frame rate : 0.213 FPS
Count of elements : 1756
Stream size : 53.7 KiB (0%)
Language : Hungarian
Default : No
Forced : No

Text #20
ID : 22
Format : UTF-8
Codec ID : S_TEXT/UTF8
Codec ID/Info : UTF-8 Plain Text
Duration : 2 h 17 min
Bit rate : 53 b/s
Frame rate : 0.214 FPS
Count of elements : 1762
Stream size : 53.9 KiB (0%)
Language : Indonesian
Default : No
Forced : No

Text #21
ID : 23
Format : UTF-8
Codec ID : S_TEXT/UTF8
Codec ID/Info : UTF-8 Plain Text
Duration : 2 h 17 min
Bit rate : 51 b/s
Frame rate : 0.209 FPS
Count of elements : 1730
Stream size : 51.7 KiB (0%)
Language : Italian
Default : No
Forced : No

Text #22
ID : 24
Format : UTF-8
Codec ID : S_TEXT/UTF8
Codec ID/Info : UTF-8 Plain Text
Duration : 2 h 17 min
Bit rate : 46 b/s
Frame rate : 0.214 FPS
Count of elements : 1772
Stream size : 47.5 KiB (0%)
Language : Japanese
Default : No
Forced : No

Text #23
ID : 25
Format : UTF-8
Codec ID : S_TEXT/UTF8
Codec ID/Info : UTF-8 Plain Text
Duration : 2 h 17 min
Bit rate : 53 b/s
Frame rate : 0.213 FPS
Count of elements : 1760
Stream size : 53.5 KiB (0%)
Language : Korean
Default : No
Forced : No

Text #24
ID : 26
Format : UTF-8
Codec ID : S_TEXT/UTF8
Codec ID/Info : UTF-8 Plain Text
Duration : 2 h 17 min
Bit rate : 53 b/s
Frame rate : 0.215 FPS
Count of elements : 1767
Stream size : 53.8 KiB (0%)
Language : Lithuanian
Default : No
Forced : No

Text #25
ID : 27
Format : UTF-8
Codec ID : S_TEXT/UTF8
Codec ID/Info : UTF-8 Plain Text
Duration : 2 h 17 min
Bit rate : 56 b/s
Frame rate : 0.214 FPS
Count of elements : 1760
Stream size : 57.2 KiB (0%)
Language : Latvian
Default : No
Forced : No

Text #26
ID : 28
Format : UTF-8
Codec ID : S_TEXT/UTF8
Codec ID/Info : UTF-8 Plain Text
Duration : 2 h 17 min
Bit rate : 52 b/s
Frame rate : 0.214 FPS
Count of elements : 1760
Stream size : 52.3 KiB (0%)
Language : Malay
Default : No
Forced : No

Text #27
ID : 29
Format : UTF-8
Codec ID : S_TEXT/UTF8
Codec ID/Info : UTF-8 Plain Text
Duration : 2 h 17 min
Bit rate : 48 b/s
Frame rate : 0.170 FPS
Count of elements : 1396
Stream size : 49.1 KiB (0%)
Language : Dutch
Default : No
Forced : No

Text #28
ID : 30
Format : UTF-8
Codec ID : S_TEXT/UTF8
Codec ID/Info : UTF-8 Plain Text
Duration : 2 h 17 min
Bit rate : 51 b/s
Frame rate : 0.187 FPS
Count of elements : 1534
Stream size : 51.7 KiB (0%)
Language : Norwegian
Default : No
Forced : No

Text #29
ID : 31
Format : UTF-8
Codec ID : S_TEXT/UTF8
Codec ID/Info : UTF-8 Plain Text
Duration : 2 h 17 min
Bit rate : 49 b/s
Frame rate : 0.205 FPS
Count of elements : 1683
Stream size : 49.7 KiB (0%)
Language : Polish
Default : No
Forced : No

Text #30
ID : 32
Format : UTF-8
Codec ID : S_TEXT/UTF8
Codec ID/Info : UTF-8 Plain Text
Duration : 2 h 17 min
Bit rate : 54 b/s
Frame rate : 0.212 FPS
Count of elements : 1755
Stream size : 54.7 KiB (0%)
Language : Portuguese
Default : No
Forced : No

Text #31
ID : 33
Format : UTF-8
Codec ID : S_TEXT/UTF8
Codec ID/Info : UTF-8 Plain Text
Duration : 2 h 17 min
Bit rate : 52 b/s
Frame rate : 0.207 FPS
Count of elements : 1705
Stream size : 52.9 KiB (0%)
Title : Brazilian
Language : Portuguese (BR)
Default : No
Forced : No

Text #32
ID : 34
Format : UTF-8
Codec ID : S_TEXT/UTF8
Codec ID/Info : UTF-8 Plain Text
Duration : 2 h 17 min
Bit rate : 84 b/s
Frame rate : 0.215 FPS
Count of elements : 1775
Stream size : 85.0 KiB (0%)
Language : Russian
Default : No
Forced : No

Text #33
ID : 35
Format : UTF-8
Codec ID : S_TEXT/UTF8
Codec ID/Info : UTF-8 Plain Text
Duration : 2 h 17 min
Bit rate : 51 b/s
Frame rate : 0.212 FPS
Count of elements : 1751
Stream size : 51.7 KiB (0%)
Language : Slovak
Default : No
Forced : No

Text #34
ID : 36
Format : UTF-8
Codec ID : S_TEXT/UTF8
Codec ID/Info : UTF-8 Plain Text
Duration : 2 h 17 min
Bit rate : 46 b/s
Frame rate : 0.184 FPS
Count of elements : 1513
Stream size : 46.8 KiB (0%)
Language : Slovenian
Default : No
Forced : No

Text #35
ID : 37
Format : UTF-8
Codec ID : S_TEXT/UTF8
Codec ID/Info : UTF-8 Plain Text
Duration : 2 h 17 min
Bit rate : 53 b/s
Frame rate : 0.214 FPS
Count of elements : 1761
Stream size : 53.7 KiB (0%)
Language : Swedish
Default : No
Forced : No

Text #36
ID : 38
Format : UTF-8
Codec ID : S_TEXT/UTF8
Codec ID/Info : UTF-8 Plain Text
Duration : 2 h 17 min
Bit rate : 168 b/s
Frame rate : 0.216 FPS
Count of elements : 1775
Stream size : 169 KiB (0%)
Language : Tamil
Default : No
Forced : No

Text #37
ID : 39
Format : UTF-8
Codec ID : S_TEXT/UTF8
Codec ID/Info : UTF-8 Plain Text
Duration : 2 h 17 min
Bit rate : 168 b/s
Frame rate : 0.216 FPS
Count of elements : 1776
Stream size : 169 KiB (0%)
Language : Telugu
Default : No
Forced : No

Text #38
ID : 40
Format : UTF-8
Codec ID : S_TEXT/UTF8
Codec ID/Info : UTF-8 Plain Text
Duration : 2 h 17 min
Bit rate : 131 b/s
Frame rate : 0.216 FPS
Count of elements : 1774
Stream size : 132 KiB (0%)
Language : Thai
Default : No
Forced : No

Text #39
ID : 41
Format : UTF-8
Codec ID : S_TEXT/UTF8
Codec ID/Info : UTF-8 Plain Text
Duration : 2 h 17 min
Bit rate : 52 b/s
Frame rate : 0.214 FPS
Count of elements : 1762
Stream size : 52.7 KiB (0%)
Language : Turkish
Default : No
Forced : No

Text #40
ID : 42
Format : UTF-8
Codec ID : S_TEXT/UTF8
Codec ID/Info : UTF-8 Plain Text
Duration : 2 h 17 min
Bit rate : 84 b/s
Frame rate : 0.215 FPS
Count of elements : 1776
Stream size : 85.6 KiB (0%)
Language : Ukrainian
Default : No
Forced : No

Text #41
ID : 43
Format : UTF-8
Codec ID : S_TEXT/UTF8
Codec ID/Info : UTF-8 Plain Text
Duration : 2 h 17 min
Bit rate : 69 b/s
Frame rate : 0.214 FPS
Count of elements : 1764
Stream size : 70.1 KiB (0%)
Language : Vietnamese
Default : No
Forced : No

Text #42
ID : 44
Format : UTF-8
Codec ID : S_TEXT/UTF8
Codec ID/Info : UTF-8 Plain Text
Duration : 2 h 17 min
Bit rate : 42 b/s
Frame rate : 0.215 FPS
Count of elements : 1774
Stream size : 43.0 KiB (0%)
Title : Traditional
Default : No
Forced : No

Menu
00:00:00.000 : en:Main

Files