I Am Legend 2007 2160p WEB-DL DTS-HD MA 5 1 DV H 265-MP4

Years after a plague kills most of humanity and transforms the rest into monsters, the sole survivor in New York City struggles valiantly to find a cure.

Year: 2007
Duration: 101 min
Release date: Friday 14th December 2007
Genre: Drama, Sci-Fi, Thriller

Rating

7.1/10
(156426 Votes)

0

Your Rating

Stars:
Will Smith, Alice Braga, Charlie Tahan, Salli Richardson-Whitfield

General
Complete name : I.Am.Legend.2007.2160p.WEB-DL.DTS-HD.MA.5.1.DV.H.265-MP4.mp4
Format : mp43
Codec ID : mp43 (isom/mp43/dby1)
File size : 20.3 GiB
Duration : 1 h 40 min
Overall bit rate mode : Variable
Overall bit rate : 28.9 Mb/s
Frame rate : 23.976 FPS
Encoded date : 2024-07-10 17:43:30 UTC
Tagged date : 2024-07-10 17:43:30 UTC
Writing application : GPAC-1.1.0-DEV-rev1027-g1daa0b5f-master

Video
ID : 1
Format : HEVC
Format/Info : High Efficiency Video Coding
Format profile : Main 10@L5@High
HDR format : Dolby Vision, Version 1.0, Profile 5, dvhe.05.06, BL+RPU, no metadata compression
Codec ID : dvhe
Codec ID/Info : High Efficiency Video Coding with Dolby Vision
Duration : 1 h 40 min
Bit rate : 23.8 Mb/s
Width : 3 840 pixels
Original width : 3 836 pixels
Height : 1 600 pixels
Original height : 1 596 pixels
Display aspect ratio : 2.40:1
Original display aspect ratio : 2.40:1
Frame rate mode : Constant
Frame rate : 23.976 (24000/1001) FPS
Color space : YUV
Chroma subsampling : 4:2:0
Bit depth : 10 bits
Bits/(Pixel*Frame) : 0.161
Stream size : 16.7 GiB (82%)
Default : Yes
Alternate group : 1
Encoded date : 2024-07-10 17:41:51 UTC
Tagged date : 2024-07-10 17:44:31 UTC
Codec configuration box : hvcC+dvcC

Audio #1
ID : 2
Format : E-AC-3
Format/Info : Enhanced AC-3
Commercial name : Dolby Digital Plus
Codec ID : ac-3
Duration : 1 h 40 min
Bit rate mode : Constant
Bit rate : 1 536 kb/s
Maximum bit rate : 1 573 kb/s
Channel(s) : 6 channels
Channel layout : L R C LFE Ls Rs
Sampling rate : 48.0 kHz
Frame rate : 62.500 FPS (768 SPF)
Compression mode : Lossy
Stream size : 1.08 GiB (5%)
Title : DDP
Language : English
Service kind : Complete Main
Encoded date : 2024-07-10 17:44:09 UTC
Tagged date : 2024-07-10 17:44:31 UTC
Dialog Normalization : -31 dB
dialnorm_Average : -31 dB
dialnorm_Minimum : -31 dB
dialnorm_Maximum : -31 dB

Audio #2
ID : 3
Format : DTS XLL
Format/Info : Digital Theater Systems
Commercial name : DTS-HD Master Audio
Codec ID : mp4a-A9
Duration : 1 h 40 min
Bit rate mode : Variable
Bit rate : 3 623 kb/s
Maximum bit rate : 5 351 kb/s / 3 623 kb/s
Channel(s) : 6 channels
Channel layout : C L R Ls Rs LFE
Sampling rate : 48.0 kHz
Frame rate : 93.750 FPS (512 SPF)
Bit depth : 24 bits
Compression mode : Lossless
Stream size : 2.54 GiB (13%)
Title : DTS-HD.MA.5.1
Language : English
Default : Yes
Alternate group : 1
Tagged date : 2024-07-10 17:44:31 UTC

Text #1
ID : 4
Format : Timed Text
Codec ID : tx3g
Duration : 1 h 35 min
Bit rate mode : Variable
Bit rate : 39 b/s
Frame rate : 0.321 FPS
Stream size : 27.3 KiB (0%)
Title : SRT
Language : English
Forced : No
Encoded date : 2024-07-10 17:44:29 UTC
Tagged date : 2024-07-10 17:44:31 UTC
Count of events : 920

Text #2
ID : 5
Format : Timed Text
Codec ID : tx3g
Duration : 1 h 35 min
Bit rate mode : Variable
Bit rate : 34 b/s
Frame rate : 0.186 FPS
Stream size : 23.8 KiB (0%)
Language : English
Forced : No
Encoded date : 2024-07-10 17:44:29 UTC
Tagged date : 2024-07-10 17:44:31 UTC
Count of events : 742

Text #3
ID : 6
Format : Timed Text
Codec ID : tx3g
Duration : 1 h 35 min
Bit rate mode : Variable
Bit rate : 39 b/s
Frame rate : 0.225 FPS
Stream size : 27.0 KiB (0%)
Title : SDH
Language : English
Forced : No
Encoded date : 2024-07-10 17:44:29 UTC
Tagged date : 2024-07-10 17:44:31 UTC
Count of events : 885

Text #4
ID : 7
Format : Timed Text
Codec ID : tx3g
Duration : 1 h 33 min
Bit rate mode : Variable
Bit rate : 45 b/s
Frame rate : 0.238 FPS
Stream size : 31.0 KiB (0%)
Language : Arabic
Forced : No
Encoded date : 2024-07-10 17:44:29 UTC
Tagged date : 2024-07-10 17:44:31 UTC
Count of events : 663

Text #5
ID : 8
Format : Timed Text
Codec ID : tx3g
Duration : 1 h 33 min
Bit rate mode : Variable
Bit rate : 52 b/s
Frame rate : 0.235 FPS
Stream size : 35.2 KiB (0%)
Language : Bulgarian
Forced : No
Encoded date : 2024-07-10 17:44:29 UTC
Tagged date : 2024-07-10 17:44:31 UTC
Count of events : 657

Text #6
ID : 9
Format : Timed Text
Codec ID : tx3g
Duration : 1 h 33 min
Bit rate mode : Variable
Bit rate : 30 b/s
Frame rate : 0.211 FPS
Stream size : 20.8 KiB (0%)
Language : Czech
Forced : No
Encoded date : 2024-07-10 17:44:30 UTC
Tagged date : 2024-07-10 17:44:31 UTC
Count of events : 590

Text #7
ID : 10
Format : Timed Text
Codec ID : tx3g
Duration : 1 h 31 min
Bit rate mode : Variable
Bit rate : 28 b/s
Frame rate : 0.160 FPS
Stream size : 18.6 KiB (0%)
Language : Danish
Forced : No
Encoded date : 2024-07-10 17:44:30 UTC
Tagged date : 2024-07-10 17:44:31 UTC
Count of events : 439

Text #8
ID : 11
Format : Timed Text
Codec ID : tx3g
Duration : 1 h 33 min
Bit rate mode : Variable
Bit rate : 36 b/s
Frame rate : 0.237 FPS
Stream size : 24.7 KiB (0%)
Language : Estonian
Forced : No
Encoded date : 2024-07-10 17:44:30 UTC
Tagged date : 2024-07-10 17:44:31 UTC
Count of events : 662

Text #9
ID : 12
Format : Timed Text
Codec ID : tx3g
Duration : 1 h 36 min
Bit rate mode : Variable
Bit rate : 37 b/s
Frame rate : 0.228 FPS
Stream size : 26.0 KiB (0%)
Language : Spanish
Forced : No
Encoded date : 2024-07-10 17:44:30 UTC
Tagged date : 2024-07-10 17:44:31 UTC
Count of events : 659

Text #10
ID : 13
Format : Timed Text
Codec ID : tx3g
Duration : 1 h 31 min
Bit rate mode : Variable
Bit rate : 29 b/s
Frame rate : 0.182 FPS
Stream size : 19.7 KiB (0%)
Language : Finnish
Forced : No
Encoded date : 2024-07-10 17:44:30 UTC
Tagged date : 2024-07-10 17:44:31 UTC
Count of events : 502

Text #11
ID : 14
Format : Timed Text
Codec ID : tx3g
Duration : 1 h 31 min
Bit rate mode : Variable
Bit rate : 31 b/s
Frame rate : 0.201 FPS
Stream size : 20.6 KiB (0%)
Language : French
Forced : No
Encoded date : 2024-07-10 17:44:30 UTC
Tagged date : 2024-07-10 17:44:31 UTC
Count of events : 554

Text #12
ID : 15
Format : Timed Text
Codec ID : tx3g
Duration : 1 h 33 min
Bit rate mode : Variable
Bit rate : 45 b/s
Frame rate : 0.230 FPS
Stream size : 30.7 KiB (0%)
Language : Hebrew
Forced : No
Encoded date : 2024-07-10 17:44:30 UTC
Tagged date : 2024-07-10 17:44:31 UTC
Count of events : 643

Text #13
ID : 16
Format : Timed Text
Codec ID : tx3g
Duration : 1 h 33 min
Bit rate mode : Variable
Bit rate : 33 b/s
Frame rate : 0.216 FPS
Stream size : 22.6 KiB (0%)
Language : Hungarian
Forced : No
Encoded date : 2024-07-10 17:44:30 UTC
Tagged date : 2024-07-10 17:44:31 UTC
Count of events : 603

Text #14
ID : 17
Format : Timed Text
Codec ID : tx3g
Duration : 1 h 31 min
Bit rate mode : Variable
Bit rate : 40 b/s
Frame rate : 0.238 FPS
Stream size : 27.0 KiB (0%)
Language : Indonesian
Forced : No
Encoded date : 2024-07-10 17:44:30 UTC
Tagged date : 2024-07-10 17:44:31 UTC
Count of events : 655

Text #15
ID : 18
Format : Timed Text
Codec ID : tx3g
Duration : 1 h 34 min
Bit rate mode : Variable
Bit rate : 28 b/s
Frame rate : 0.211 FPS
Stream size : 19.0 KiB (0%)
Language : Japanese
Forced : No
Encoded date : 2024-07-10 17:44:30 UTC
Tagged date : 2024-07-10 17:44:31 UTC
Count of events : 596

Text #16
ID : 19
Format : Timed Text
Codec ID : tx3g
Duration : 1 h 33 min
Bit rate mode : Variable
Bit rate : 30 b/s
Frame rate : 0.211 FPS
Stream size : 20.2 KiB (0%)
Language : Korean
Forced : No
Encoded date : 2024-07-10 17:44:30 UTC
Tagged date : 2024-07-10 17:44:31 UTC
Count of events : 589

Text #17
ID : 20
Format : Timed Text
Codec ID : tx3g
Duration : 1 h 33 min
Bit rate mode : Variable
Bit rate : 39 b/s
Frame rate : 0.237 FPS
Stream size : 26.4 KiB (0%)
Language : Lithuanian
Forced : No
Encoded date : 2024-07-10 17:44:30 UTC
Tagged date : 2024-07-10 17:44:31 UTC
Count of events : 661

Text #18
ID : 21
Format : Timed Text
Codec ID : tx3g
Duration : 1 h 33 min
Bit rate mode : Variable
Bit rate : 34 b/s
Frame rate : 0.224 FPS
Stream size : 23.2 KiB (0%)
Language : Latvian
Forced : No
Encoded date : 2024-07-10 17:44:30 UTC
Tagged date : 2024-07-10 17:44:31 UTC
Count of events : 624

Text #19
ID : 22
Format : Timed Text
Codec ID : tx3g
Duration : 1 h 33 min
Bit rate mode : Variable
Bit rate : 41 b/s
Frame rate : 0.229 FPS
Stream size : 27.8 KiB (0%)
Language : Malay
Forced : No
Encoded date : 2024-07-10 17:44:30 UTC
Tagged date : 2024-07-10 17:44:31 UTC
Count of events : 640

Text #20
ID : 23
Format : Timed Text
Codec ID : tx3g
Duration : 1 h 31 min
Bit rate mode : Variable
Bit rate : 32 b/s
Frame rate : 0.203 FPS
Stream size : 21.4 KiB (0%)
Language : Norwegian Bokmal
Forced : No
Encoded date : 2024-07-10 17:44:30 UTC
Tagged date : 2024-07-10 17:44:31 UTC
Count of events : 558

Text #21
ID : 24
Format : Timed Text
Codec ID : tx3g
Duration : 1 h 33 min
Bit rate mode : Variable
Bit rate : 38 b/s
Frame rate : 0.228 FPS
Stream size : 25.8 KiB (0%)
Language : Portuguese
Forced : No
Encoded date : 2024-07-10 17:44:30 UTC
Tagged date : 2024-07-10 17:44:31 UTC
Count of events : 637

Text #22
ID : 25
Format : Timed Text
Codec ID : tx3g
Duration : 1 h 33 min
Bit rate mode : Variable
Bit rate : 37 b/s
Frame rate : 0.234 FPS
Stream size : 25.0 KiB (0%)
Language : Polish
Forced : No
Encoded date : 2024-07-10 17:44:30 UTC
Tagged date : 2024-07-10 17:44:31 UTC
Count of events : 652

Text #23
ID : 26
Format : Timed Text
Codec ID : tx3g
Duration : 1 h 33 min
Bit rate mode : Variable
Bit rate : 38 b/s
Frame rate : 0.231 FPS
Stream size : 25.8 KiB (0%)
Language : Portuguese
Forced : No
Encoded date : 2024-07-10 17:44:30 UTC
Tagged date : 2024-07-10 17:44:31 UTC
Count of events : 645

Text #24
ID : 27
Format : Timed Text
Codec ID : tx3g
Duration : 1 h 33 min
Bit rate mode : Variable
Bit rate : 58 b/s
Frame rate : 0.248 FPS
Stream size : 39.6 KiB (0%)
Language : Russian
Forced : No
Encoded date : 2024-07-10 17:44:30 UTC
Tagged date : 2024-07-10 17:44:31 UTC
Count of events : 692

Text #25
ID : 28
Format : Timed Text
Codec ID : tx3g
Duration : 1 h 33 min
Bit rate mode : Variable
Bit rate : 32 b/s
Frame rate : 0.238 FPS
Stream size : 21.8 KiB (0%)
Language : Slovenian
Forced : No
Encoded date : 2024-07-10 17:44:30 UTC
Tagged date : 2024-07-10 17:44:31 UTC
Count of events : 663

Text #26
ID : 29
Format : Timed Text
Codec ID : tx3g
Duration : 1 h 31 min
Bit rate mode : Variable
Bit rate : 32 b/s
Frame rate : 0.177 FPS
Stream size : 21.2 KiB (0%)
Language : Swedish
Forced : No
Encoded date : 2024-07-10 17:44:30 UTC
Tagged date : 2024-07-10 17:44:31 UTC
Count of events : 486

Text #27
ID : 30
Format : Timed Text
Codec ID : tx3g
Duration : 1 h 31 min
Bit rate mode : Variable
Bit rate : 75 b/s
Frame rate : 0.238 FPS
Stream size : 50.5 KiB (0%)
Language : Thai
Forced : No
Encoded date : 2024-07-10 17:44:30 UTC
Tagged date : 2024-07-10 17:44:31 UTC
Count of events : 656

Text #28
ID : 31
Format : Timed Text
Codec ID : tx3g
Duration : 1 h 33 min
Bit rate mode : Variable
Bit rate : 34 b/s
Frame rate : 0.224 FPS
Stream size : 22.9 KiB (0%)
Language : Turkish
Forced : No
Encoded date : 2024-07-10 17:44:30 UTC
Tagged date : 2024-07-10 17:44:31 UTC
Count of events : 625

Text #29
ID : 32
Format : Timed Text
Codec ID : tx3g
Duration : 1 h 33 min
Bit rate mode : Variable
Bit rate : 58 b/s
Frame rate : 0.235 FPS
Stream size : 39.2 KiB (0%)
Language : Ukrainian
Forced : No
Encoded date : 2024-07-10 17:44:31 UTC
Tagged date : 2024-07-10 17:44:31 UTC
Count of events : 657

Text #30
ID : 33
Format : Timed Text
Codec ID : tx3g
Duration : 1 h 33 min
Bit rate mode : Variable
Bit rate : 32 b/s
Frame rate : 0.229 FPS
Stream size : 21.7 KiB (0%)
Title : Traditional
Language : Chinese
Forced : No
Encoded date : 2024-07-10 17:44:31 UTC
Tagged date : 2024-07-10 17:44:31 UTC
Count of events : 640

Text #31
ID : 34
Format : Timed Text
Codec ID : tx3g
Duration : 1 h 31 min
Bit rate mode : Variable
Bit rate : 32 b/s
Frame rate : 0.232 FPS
Stream size : 21.2 KiB (0%)
Title : Simplified
Language : Chinese
Forced : No
Encoded date : 2024-07-10 17:44:31 UTC
Tagged date : 2024-07-10 17:44:31 UTC
Count of events : 638

Text #32
ID : 35
Format : Timed Text
Codec ID : tx3g
Duration : 1 h 33 min
Bit rate mode : Variable
Bit rate : 30 b/s
Frame rate : 0.239 FPS
Stream size : 20.6 KiB (0%)
Title : Traditional
Language : Chinese
Forced : No
Encoded date : 2024-07-10 17:44:31 UTC
Tagged date : 2024-07-10 17:44:31 UTC
Count of events : 669

Files