Kingdom Of The Planet Of The Apes 2024 LATiN-SPANiSH MULTi 2160p UHD HDR x265-nogrp

Many years after the reign of Caesar, a young ape goes on a journey that will lead him to question everything he's been taught about the past and make choices that will define a future for apes and humans alike.

Year: 2024
Duration: 145 min
Release date: Wednesday 8th May 2024
Genre: Action, Adventure, Sci-Fi

Rating

7.4/10
(10647 Votes)

0

Your Rating

Stars:
Freya Allan, Kevin Durand, Dichen Lachman, William H. Macy, Owen Teague, Lydia Peckham, Peter Macon, Sara Wiseman

General
Unique ID : 105651933030983956337163409538645976197 (0x4F7BD278777CC44F4B9BBFD86F0B6485)
Complete name : Kingdom.Of.The.Planet.Of.The.Apes.2024.LATiN-SPANiSH.MULTi.2160p.UHD.HDR.x265.mkv
Format : Matroska
Format version : Version 4
File size : 26.3 GiB
Duration : 2 h 24 min
Overall bit rate : 26.1 Mb/s
Frame rate : 24.000 FPS
Encoded date : 2024-07-08 19:53:54 UTC
Writing application : mkvmerge v82.0 ('I'm The President') 64-bit
Writing library : libebml v1.4.5 + libmatroska v1.7.1

Video
ID : 1
Format : HEVC
Format/Info : High Efficiency Video Coding
Format profile : Main 10@L5@High
HDR format : Dolby Vision, Version 1.0, Profile 8.1, dvhe.08.06, BL+RPU, no metadata compression, HDR10 compatible / SMPTE ST 2094 App 4, Version HDR10+ Profile A, HDR10+ Profile A compatible
Codec ID : V_MPEGH/ISO/HEVC
Duration : 2 h 24 min
Bit rate : 24.0 Mb/s
Width : 3 840 pixels
Height : 1 606 pixels
Display aspect ratio : 2.39:1
Frame rate mode : Constant
Frame rate : 24.000 FPS
Color space : YUV
Chroma subsampling : 4:2:0 (Type 2)
Bit depth : 10 bits
Bits/(Pixel*Frame) : 0.162
Stream size : 24.3 GiB (92%)
Default : Yes
Forced : No
Color range : Limited
Color primaries : BT.2020
Transfer characteristics : PQ
Matrix coefficients : BT.2020 non-constant
Mastering display color primaries : BT.2020
Mastering display luminance : min: 0.0050 cd/m2, max: 1000 cd/m2
Maximum Content Light Level : 988 cd/m2
Maximum Frame-Average Light Level : 382 cd/m2

Audio #1
ID : 2
Format : E-AC-3
Format/Info : Enhanced AC-3
Commercial name : Dolby Digital Plus
Format settings : Dolby Surround EX
Codec ID : A_EAC3
Duration : 2 h 24 min
Bit rate mode : Constant
Bit rate : 640 kb/s
Channel(s) : 8 channels
Channel layout : L R C LFE Ls Rs Lb Rb
Sampling rate : 48.0 kHz
Frame rate : 31.250 FPS (1536 SPF)
Compression mode : Lossy
Stream size : 662 MiB (2%)
Title : Latino E-AC3 7.1
Language : Spanish
Service kind : Complete Main
Default : Yes
Forced : Yes
Dialog Normalization : -27 dB
compr : -0.28 dB
dialnorm_Average : -27 dB
dialnorm_Minimum : -27 dB
dialnorm_Maximum : -27 dB

Audio #2
ID : 3
Format : AC-3
Format/Info : Audio Coding 3
Commercial name : Dolby Digital
Codec ID : A_AC3
Duration : 2 h 24 min
Bit rate mode : Constant
Bit rate : 640 kb/s
Channel(s) : 6 channels
Channel layout : L R C LFE Ls Rs
Sampling rate : 48.0 kHz
Frame rate : 31.250 FPS (1536 SPF)
Compression mode : Lossy
Stream size : 662 MiB (2%)
Title : Latino AC3 5.1
Language : Spanish
Service kind : Complete Main
Default : Yes
Forced : No
Dialog Normalization : -31 dB
cmixlev : -4.5 dB
surmixlev : -6 dB
dialnorm_Average : -31 dB
dialnorm_Minimum : -31 dB
dialnorm_Maximum : -31 dB

Audio #3
ID : 4
Format : E-AC-3 JOC
Format/Info : Enhanced AC-3 with Joint Object Coding
Commercial name : Dolby Digital Plus with Dolby Atmos
Codec ID : A_EAC3
Duration : 2 h 24 min
Bit rate mode : Constant
Bit rate : 768 kb/s
Channel(s) : 6 channels
Channel layout : L R C LFE Ls Rs
Sampling rate : 48.0 kHz
Frame rate : 31.250 FPS (1536 SPF)
Compression mode : Lossy
Stream size : 795 MiB (3%)
Title : English
Language : English
Service kind : Complete Main
Default : Yes
Forced : No
Complexity index : 16
Number of dynamic objects : 15
Bed channel count : 1 channel
Bed channel configuration : LFE
Dialog Normalization : -20 dB
compr : -0.28 dB
dialnorm_Average : -20 dB
dialnorm_Minimum : -20 dB
dialnorm_Maximum : -20 dB

Text #1
ID : 5
Format : UTF-8
Codec ID : S_TEXT/UTF8
Codec ID/Info : UTF-8 Plain Text
Duration : 2 h 12 min
Bit rate : 0 b/s
Frame rate : 0.003 FPS
Count of elements : 24
Stream size : 742 Bytes (0%)
Title : Forzados
Language : Spanish
Default : Yes
Forced : Yes

Text #2
ID : 6
Format : UTF-8
Codec ID : S_TEXT/UTF8
Codec ID/Info : UTF-8 Plain Text
Duration : 2 h 15 min
Bit rate : 19 b/s
Frame rate : 0.117 FPS
Count of elements : 952
Stream size : 19.2 KiB (0%)
Title : Spanish [Latin America]
Language : Spanish
Default : No
Forced : No

Text #3
ID : 7
Format : UTF-8
Codec ID : S_TEXT/UTF8
Codec ID/Info : UTF-8 Plain Text
Duration : 2 h 11 min
Bit rate : 17 b/s
Frame rate : 0.118 FPS
Count of elements : 932
Stream size : 17.0 KiB (0%)
Title : English
Language : English
Default : No
Forced : No

Files