Twister 1996 UHD BluRay HDR10 10Bit 2160p AC-3 TrueHD7 1 Atmos + Multi HEVC-d3g

TV weatherman Bill Harding is trying to get his tornado-hunter wife, Jo, to sign divorce papers so he can marry his girlfriend Melissa. But Mother Nature, in the form of a series of intense storms sweeping across Oklahoma, has other plans. Soon the three have joined the team of stormchasers as they attempt to insert a revolutionary measuring device into the very heart of several extremely violent tornados. Written by Martin H. Booda
Episode Summary: A couple on the point of divorce keep meeting each other because both are researchers who chase tornadoes.

Episode Title: Twister
Episode Air date: Wednesday 21st August 1996
Duration: 113 min
Genre: Action, Adventure, Thriller

Rating

6.5/10
(185989 Votes)

0

Your Rating

Stars: Helen Hunt, Bill Paxton, Cary Elwes, Jami Gertz

Twister 1996 UHD BluRay HDR10 10Bit 2160p AC-3 TrueHD7.1 Atmos _+ Multi HEVC-d3g [/color]

IMDb: https://www.imdb.com/title/tt0117998/

Complete name : Twister 1996 UHD BluRay HDR10 10Bit 2160p AC-3 TrueHD7.1 Atmos _+ Multi HEVC-d3g.mkv
Format : Matroska
Format version : Version 2
File size : 10.7 GiB
Duration : 1 h 53 min
Overall bit rate mode : Variable
Overall bit rate : 13.5 Mb/s
Frame rate : 23.976 FPS
Movie name : Twister
Encoded date : 2024-07-08 20:35:08 UTC
Writing application : DVDFab 12.1.1.5
Writing library : libebml v1.4.2 + libmatroska v1.6.3

Video
ID : 1
Format : HEVC
Format/Info : High Efficiency Video Coding
Format profile : Main 10@L5.1@High
HDR format : SMPTE ST 2086, HDR10 compatible
Codec ID : V_MPEGH/ISO/HEVC
Duration : 1 h 53 min
Bit rate : 8 976 kb/s
Width : 3 840 pixels
Height : 1 608 pixels
Display aspect ratio : 2.39:1
Frame rate mode : Constant
Frame rate : 23.976 (24000/1001) FPS
Color space : YUV
Chroma subsampling : 4:2:0 (Type 2)
Bit depth : 10 bits
Bits/(Pixel*Frame) : 0.061
Stream size : 7.09 GiB (66%)
Default : Yes
Forced : No
Color range : Limited
Color primaries : BT.2020
Transfer characteristics : PQ
Matrix coefficients : BT.2020 non-constant
Mastering display color primaries : Display P3
Mastering display luminance : min: 0.0001 cd/m2, max: 1000 cd/m2
Maximum Content Light Level : 995 cd/m2
Maximum Frame-Average Light Level : 693 cd/m2

Audio #1
ID : 2
Format : MLP FBA 16-ch
Format/Info : Meridian Lossless Packing FBA with 16-channel presentation
Commercial name : Dolby TrueHD with Dolby Atmos
Codec ID : A_TRUEHD
Duration : 1 h 53 min
Bit rate mode : Variable
Bit rate : 3 571 kb/s
Maximum bit rate : 5 736 kb/s
Channel(s) : 8 channels
Channel layout : L R C LFE Ls Rs Lb Rb
Sampling rate : 48.0 kHz
Frame rate : 1 200.000 FPS (40 SPF)
Compression mode : Lossless
Stream size : 2.82 GiB (26%)
Language : English
Default : Yes
Forced : No
Number of dynamic objects : 11
Bed channel count : 1 channel
Bed channel configuration : LFE

Audio #2
ID : 3
Format : AC-3
Format/Info : Audio Coding 3
Commercial name : Dolby Digital
Codec ID : A_AC3
Duration : 1 h 53 min
Bit rate mode : Constant
Bit rate : 640 kb/s
Channel(s) : 6 channels
Channel layout : L R C LFE Ls Rs
Sampling rate : 48.0 kHz
Frame rate : 31.250 FPS (1536 SPF)
Compression mode : Lossy
Stream size : 517 MiB (5%)
Language : French
Service kind : Complete Main
Default : No
Forced : No
Dialog Normalization : -27 dB
compr : 1.49 dB
cmixlev : -3.0 dB
surmixlev : -3 dB
mixlevel : 283 dB
roomtyp : 3
ltrtcmixlev : -3.0 dB
ltrtsurmixlev : -3.0 dB
lorocmixlev : -3.0 dB
lorosurmixlev : -4.5 dB
dialnorm_Average : -27 dB
dialnorm_Minimum : -27 dB
dialnorm_Maximum : -27 dB

Audio #3
ID : 4
Format : AC-3
Format/Info : Audio Coding 3
Commercial name : Dolby Digital
Format settings : Dolby Surround
Codec ID : A_AC3
Duration : 1 h 53 min
Bit rate mode : Constant
Bit rate : 192 kb/s
Channel(s) : 2 channels
Channel layout : L R
Sampling rate : 48.0 kHz
Frame rate : 31.250 FPS (1536 SPF)
Compression mode : Lossy
Stream size : 155 MiB (1%)
Language : Spanish
Service kind : Complete Main
Default : No
Forced : No
Dialog Normalization : -27 dB
compr : 1.49 dB
dsurmod : Dolby Surround encoded
mixlevel : 283 dB
roomtyp : 3
ltrtcmixlev : -3.0 dB
ltrtsurmixlev : -3.0 dB
lorocmixlev : -3.0 dB
lorosurmixlev : -3.0 dB
dialnorm_Average : -27 dB
dialnorm_Minimum : -27 dB
dialnorm_Maximum : -27 dB

Text #1
ID : 5
Format : PGS
Codec ID : S_HDMV/PGS
Codec ID/Info : Picture based subtitle format used on BDs/HD-DVDs
Duration : 1 h 44 min
Bit rate : 38.5 kb/s
Frame rate : 0.473 FPS
Count of elements : 2970
Stream size : 28.8 MiB (0%)
Language : English
Default : No
Forced : No

Text #2
ID : 6
Format : PGS
Codec ID : S_HDMV/PGS
Codec ID/Info : Picture based subtitle format used on BDs/HD-DVDs
Duration : 1 h 44 min
Bit rate : 26.3 kb/s
Frame rate : 0.418 FPS
Count of elements : 2624
Stream size : 19.7 MiB (0%)
Language : French
Default : No
Forced : No

Text #3
ID : 7
Format : PGS
Codec ID : S_HDMV/PGS
Codec ID/Info : Picture based subtitle format used on BDs/HD-DVDs
Duration : 1 h 44 min
Bit rate : 29.1 kb/s
Frame rate : 0.449 FPS
Count of elements : 2824
Stream size : 21.8 MiB (0%)
Language : Spanish
Default : No
Forced : No

Text #4
ID : 8
Format : PGS
Codec ID : S_HDMV/PGS
Codec ID/Info : Picture based subtitle format used on BDs/HD-DVDs
Duration : 38 min 32 s
Bit rate : 281 b/s
Frame rate : 0.003 FPS
Count of elements : 8
Stream size : 79.4 KiB (0%)
Language : French
Default : No
Forced : No

Text #5
ID : 9
Format : PGS
Codec ID : S_HDMV/PGS
Codec ID/Info : Picture based subtitle format used on BDs/HD-DVDs
Duration : 37 min 52 s
Bit rate : 124 b/s
Frame rate : 0.002 FPS
Count of elements : 4
Stream size : 34.7 KiB (0%)
Language : Spanish
Default : No
Forced : No

Source: 4K UHD BluRay ISO

Files