Hit Man 2023 2160p NF WEB-DL DV HDR10 TrueHD 5 1 HEVC-VD0N

A professor moonlighting as a hit man of sorts for his city police department, descends into dangerous, dubious territory when he finds himself attracted to a woman who enlists his services.

Year: 2023
Duration: 115 min
Release date: Thursday 16th May 2024
Genre: Action, Comedy, Crime, Romance

Rating

7.4/10
(4442 Votes)

0

Your Rating

Stars:
Glen Powell, Adria Arjona, Retta, Austin Amelio, Molly Bernard, Kagga Jayson, Mike Markoff, Beth Bartley

* HDR 4K Netflix WEB-DL + BD audio (DV + HDR10 compatible)
* BD REMUX Comparisons: https://slow.pics/c/4iFzaRZd

Format : Matroska
Format version : Version 4
File size : 16.4 GiB
Duration : 1 h 55 min
Overall bit rate mode : Variable
Overall bit rate : 20.3 Mb/s
Frame rate : 23.976 FPS
Writing application : mkvmerge v83.0 ('Circle Of Friends') 64-bit
Writing library : libebml v1.4.5 + libmatroska v1.7.1

Video
ID : 1
Format : HEVC
Format/Info : High Efficiency Video Coding
Format profile : Main 10@L5@Main
HDR format : Dolby Vision, Version 1.0, Profile 8.1, dvhe.08.06, BL+RPU, no metadata compression, HDR10 compatible / SMPTE ST 2086, Version HDR10, HDR10 compatible
Codec ID : V_MPEGH/ISO/HEVC
Duration : 1 h 55 min
Bit rate : 18.1 Mb/s
Width : 3 840 pixels
Height : 2 160 pixels
Display aspect ratio : 16:9
Frame rate mode : Constant
Frame rate : 23.976 (24000/1001) FPS
Color space : YUV
Chroma subsampling : 4:2:0 (Type 2)
Bit depth : 10 bits
Bits/(Pixel*Frame) : 0.091
Stream size : 14.7 GiB (89%)
Default : Yes
Forced : No
Color range : Limited
Color primaries : BT.2020
Transfer characteristics : PQ
Matrix coefficients : BT.2020 non-constant
Mastering display color primaries : Display P3
Mastering display luminance : min: 0.0001 cd/m2, max: 1000 cd/m2
Maximum Content Light Level : 761 cd/m2
Maximum Frame-Average Light Level : 138 cd/m2

Audio #1
ID : 2
Format : MLP FBA
Format/Info : Meridian Lossless Packing FBA
Commercial name : Dolby TrueHD
Codec ID : A_TRUEHD
Duration : 1 h 55 min
Bit rate mode : Variable
Bit rate : 1 069 kb/s
Maximum bit rate : 2 082 kb/s
Channel(s) : 6 channels
Channel layout : L R C LFE Ls Rs
Sampling rate : 48.0 kHz
Frame rate : 1 200.000 FPS (40 SPF)
Compression mode : Lossless
Stream size : 880 MiB (5%)
Title : Dolby TrueHD 5.1
Language : English
Default : Yes
Forced : No

Audio #2
ID : 3
Format : E-AC-3
Format/Info : Enhanced AC-3
Commercial name : Dolby Digital Plus
Codec ID : A_EAC3
Duration : 1 h 55 min
Bit rate mode : Constant
Bit rate : 1 024 kb/s
Channel(s) : 6 channels
Channel layout : L R C LFE Ls Rs
Sampling rate : 48.0 kHz
Frame rate : 31.250 FPS (1536 SPF)
Bit depth : 32 bits
Compression mode : Lossy
Delay relative to video : 14 ms
Stream size : 843 MiB (5%)
Title : DDP @ 1024kbps
Language : English
Service kind : Complete Main
Default : Yes
Forced : No
Dialog Normalization : -31 dB
dialnorm_Average : -31 dB
dialnorm_Minimum : -31 dB
dialnorm_Maximum : -31 dB

Text #1
ID : 4
Format : UTF-8
Codec ID : S_TEXT/UTF8
Codec ID/Info : UTF-8 Plain Text
Duration : 1 h 47 min
Bit rate : 80 b/s
Frame rate : 0.295 FPS
Count of elements : 1904
Stream size : 63.8 KiB (0%)
Title : Netflix WEB-DL
Language : English
Default : No
Forced : No

Text #2
ID : 5
Format : PGS
Muxing mode : zlib
Codec ID : S_HDMV/PGS
Codec ID/Info : Picture based subtitle format used on BDs/HD-DVDs
Duration : 1 h 53 min
Bit rate : 39.7 kb/s
Frame rate : 0.673 FPS
Count of elements : 4599
Stream size : 32.3 MiB (0%)
Title : SDH
Language : English
Default : No
Forced : No

Text #3
ID : 6
Format : UTF-8
Codec ID : S_TEXT/UTF8
Codec ID/Info : UTF-8 Plain Text
Duration : 1 h 48 min
Bit rate : 84 b/s
Frame rate : 0.310 FPS
Count of elements : 2014
Stream size : 67.3 KiB (0%)
Title : SDH - Netflix WEB-DL
Language : English
Default : No
Forced : No

Text #4
ID : 7
Format : UTF-8
Codec ID : S_TEXT/UTF8
Codec ID/Info : UTF-8 Plain Text
Duration : 1 h 54 min
Bit rate : 114 b/s
Frame rate : 0.280 FPS
Count of elements : 1916
Stream size : 95.5 KiB (0%)
Title : Netflix WEB-DL
Language : Arabic
Default : No
Forced : No

Text #5
ID : 8
Format : UTF-8
Codec ID : S_TEXT/UTF8
Codec ID/Info : UTF-8 Plain Text
Duration : 1 h 54 min
Bit rate : 64 b/s
Frame rate : 0.279 FPS
Count of elements : 1911
Stream size : 53.9 KiB (0%)
Title : Simplified - Netflix WEB-DL
Language : Chinese
Default : No
Forced : No

Text #6
ID : 9
Format : UTF-8
Codec ID : S_TEXT/UTF8
Codec ID/Info : UTF-8 Plain Text
Duration : 1 h 54 min
Bit rate : 52 b/s
Frame rate : 0.277 FPS
Count of elements : 1895
Stream size : 43.7 KiB (0%)
Title : Traditional - Netflix WEB-DL
Language : Chinese
Default : No
Forced : No

Text #7
ID : 10
Format : UTF-8
Codec ID : S_TEXT/UTF8
Codec ID/Info : UTF-8 Plain Text
Duration : 1 h 54 min
Bit rate : 66 b/s
Frame rate : 0.269 FPS
Count of elements : 1840
Stream size : 55.8 KiB (0%)
Title : Netflix WEB-DL
Language : Croatian
Default : No
Forced : No

Text #8
ID : 11
Format : UTF-8
Codec ID : S_TEXT/UTF8
Codec ID/Info : UTF-8 Plain Text
Duration : 1 h 54 min
Bit rate : 72 b/s
Frame rate : 0.239 FPS
Count of elements : 1636
Stream size : 60.3 KiB (0%)
Title : Netflix WEB-DL
Language : Czech
Default : No
Forced : No

Text #9
ID : 12
Format : UTF-8
Codec ID : S_TEXT/UTF8
Codec ID/Info : UTF-8 Plain Text
Duration : 1 h 54 min
Bit rate : 73 b/s
Frame rate : 0.224 FPS
Count of elements : 1531
Stream size : 61.5 KiB (0%)
Title : Netflix WEB-DL
Language : Danish
Default : No
Forced : No

Text #10
ID : 13
Format : UTF-8
Codec ID : S_TEXT/UTF8
Codec ID/Info : UTF-8 Plain Text
Duration : 1 h 54 min
Bit rate : 63 b/s
Frame rate : 0.208 FPS
Count of elements : 1426
Stream size : 53.3 KiB (0%)
Title : Netflix WEB-DL
Language : Dutch
Default : No
Forced : No

Text #11
ID : 14
Format : UTF-8
Codec ID : S_TEXT/UTF8
Codec ID/Info : UTF-8 Plain Text
Duration : 1 h 54 min
Bit rate : 69 b/s
Frame rate : 0.275 FPS
Count of elements : 1881
Stream size : 58.5 KiB (0%)
Title : Netflix WEB-DL
Language : Filipino
Default : No
Forced : No

Text #12
ID : 15
Format : UTF-8
Codec ID : S_TEXT/UTF8
Codec ID/Info : UTF-8 Plain Text
Duration : 1 h 54 min
Bit rate : 69 b/s
Frame rate : 0.251 FPS
Count of elements : 1718
Stream size : 58.4 KiB (0%)
Title : Netflix WEB-DL
Language : Finnish
Default : No
Forced : No

Text #13
ID : 16
Format : PGS
Muxing mode : zlib
Codec ID : S_HDMV/PGS
Codec ID/Info : Picture based subtitle format used on BDs/HD-DVDs
Duration : 1 h 48 min
Bit rate : 45.5 kb/s
Frame rate : 0.741 FPS
Count of elements : 4834
Stream size : 35.4 MiB (0%)
Title : SDH
Language : French
Default : No
Forced : No

Text #14
ID : 17
Format : UTF-8
Codec ID : S_TEXT/UTF8
Codec ID/Info : UTF-8 Plain Text
Duration : 1 h 54 min
Bit rate : 67 b/s
Frame rate : 0.280 FPS
Count of elements : 1921
Stream size : 56.4 KiB (0%)
Title : Netflix WEB-DL
Language : French
Default : No
Forced : No

Text #15
ID : 18
Format : UTF-8
Codec ID : S_TEXT/UTF8
Codec ID/Info : UTF-8 Plain Text
Duration : 1 h 54 min
Bit rate : 68 b/s
Frame rate : 0.273 FPS
Count of elements : 1867
Stream size : 57.5 KiB (0%)
Title : Netflix WEB-DL
Language : German
Default : No
Forced : No

Text #16
ID : 19
Format : UTF-8
Codec ID : S_TEXT/UTF8
Codec ID/Info : UTF-8 Plain Text
Duration : 1 h 54 min
Bit rate : 119 b/s
Frame rate : 0.271 FPS
Count of elements : 1857
Stream size : 99.8 KiB (0%)
Title : Netflix WEB-DL
Language : Greek
Default : No
Forced : No

Text #17
ID : 20
Format : UTF-8
Codec ID : S_TEXT/UTF8
Codec ID/Info : UTF-8 Plain Text
Duration : 1 h 54 min
Bit rate : 112 b/s
Frame rate : 0.278 FPS
Count of elements : 1906
Stream size : 94.0 KiB (0%)
Title : Netflix WEB-DL
Language : Hebrew
Default : No
Forced : No

Text #18
ID : 21
Format : UTF-8
Codec ID : S_TEXT/UTF8
Codec ID/Info : UTF-8 Plain Text
Duration : 1 h 54 min
Bit rate : 73 b/s
Frame rate : 0.259 FPS
Count of elements : 1771
Stream size : 61.4 KiB (0%)
Title : Netflix WEB-DL
Language : Hungarian
Default : No
Forced : No

Text #19
ID : 22
Format : UTF-8
Codec ID : S_TEXT/UTF8
Codec ID/Info : UTF-8 Plain Text
Duration : 1 h 54 min
Bit rate : 64 b/s
Frame rate : 0.268 FPS
Count of elements : 1838
Stream size : 53.6 KiB (0%)
Title : Netflix WEB-DL
Language : Indonesian
Default : No
Forced : No

Text #20
ID : 23
Format : UTF-8
Codec ID : S_TEXT/UTF8
Codec ID/Info : UTF-8 Plain Text
Duration : 1 h 54 min
Bit rate : 67 b/s
Frame rate : 0.255 FPS
Count of elements : 1745
Stream size : 56.8 KiB (0%)
Title : Netflix WEB-DL
Language : Italian
Default : No
Forced : No

Text #21
ID : 24
Format : UTF-8
Codec ID : S_TEXT/UTF8
Codec ID/Info : UTF-8 Plain Text
Duration : 1 h 54 min
Bit rate : 61 b/s
Frame rate : 0.278 FPS
Count of elements : 1903
Stream size : 51.3 KiB (0%)
Title : Netflix WEB-DL
Language : Japanese
Default : No
Forced : No

Text #22
ID : 25
Format : UTF-8
Codec ID : S_TEXT/UTF8
Codec ID/Info : UTF-8 Plain Text
Duration : 1 h 54 min
Bit rate : 77 b/s
Frame rate : 0.278 FPS
Count of elements : 1906
Stream size : 65.2 KiB (0%)
Title : Netflix WEB-DL
Language : Korean
Default : No
Forced : No

Text #23
ID : 26
Format : UTF-8
Codec ID : S_TEXT/UTF8
Codec ID/Info : UTF-8 Plain Text
Duration : 1 h 54 min
Bit rate : 68 b/s
Frame rate : 0.274 FPS
Count of elements : 1877
Stream size : 57.4 KiB (0%)
Title : Netflix WEB-DL
Language : Malay
Default : No
Forced : No

Text #24
ID : 27
Format : UTF-8
Codec ID : S_TEXT/UTF8
Codec ID/Info : UTF-8 Plain Text
Duration : 1 h 54 min
Bit rate : 63 b/s
Frame rate : 0.238 FPS
Count of elements : 1627
Stream size : 53.5 KiB (0%)
Title : Netflix WEB-DL
Language : Norwegian Bokmal
Default : No
Forced : No

Text #25
ID : 28
Format : UTF-8
Codec ID : S_TEXT/UTF8
Codec ID/Info : UTF-8 Plain Text
Duration : 1 h 54 min
Bit rate : 68 b/s
Frame rate : 0.270 FPS
Count of elements : 1847
Stream size : 57.0 KiB (0%)
Title : Netflix WEB-DL
Language : Polish
Default : No
Forced : No

Text #26
ID : 29
Format : UTF-8
Codec ID : S_TEXT/UTF8
Codec ID/Info : UTF-8 Plain Text
Duration : 1 h 54 min
Bit rate : 67 b/s
Frame rate : 0.268 FPS
Count of elements : 1838
Stream size : 56.5 KiB (0%)
Title : Brazilian - Netflix WEB-DL
Language : Portuguese
Default : No
Forced : No

Text #27
ID : 30
Format : UTF-8
Codec ID : S_TEXT/UTF8
Codec ID/Info : UTF-8 Plain Text
Duration : 1 h 54 min
Bit rate : 69 b/s
Frame rate : 0.262 FPS
Count of elements : 1792
Stream size : 58.2 KiB (0%)
Title : Iberian - Netflix WEB-DL
Language : Portuguese
Default : No
Forced : No

Text #28
ID : 31
Format : UTF-8
Codec ID : S_TEXT/UTF8
Codec ID/Info : UTF-8 Plain Text
Duration : 1 h 54 min
Bit rate : 69 b/s
Frame rate : 0.249 FPS
Count of elements : 1704
Stream size : 57.8 KiB (0%)
Title : Netflix WEB-DL
Language : Romanian
Default : No
Forced : No

Text #29
ID : 32
Format : UTF-8
Codec ID : S_TEXT/UTF8
Codec ID/Info : UTF-8 Plain Text
Duration : 1 h 54 min
Bit rate : 118 b/s
Frame rate : 0.276 FPS
Count of elements : 1889
Stream size : 98.8 KiB (0%)
Title : Netflix WEB-DL
Language : Russian
Default : No
Forced : No

Text #30
ID : 33
Format : UTF-8
Codec ID : S_TEXT/UTF8
Codec ID/Info : UTF-8 Plain Text
Duration : 1 h 54 min
Bit rate : 69 b/s
Frame rate : 0.275 FPS
Count of elements : 1882
Stream size : 58.2 KiB (0%)
Title : Castilian - Netflix WEB-DL
Language : Spanish
Default : No
Forced : No

Text #31
ID : 34
Format : UTF-8
Codec ID : S_TEXT/UTF8
Codec ID/Info : UTF-8 Plain Text
Duration : 1 h 54 min
Bit rate : 72 b/s
Frame rate : 0.271 FPS
Count of elements : 1853
Stream size : 60.6 KiB (0%)
Title : Latin American - Netflix WEB-DL
Language : Spanish
Default : No
Forced : No

Text #32
ID : 35
Format : UTF-8
Codec ID : S_TEXT/UTF8
Codec ID/Info : UTF-8 Plain Text
Duration : 1 h 54 min
Bit rate : 74 b/s
Frame rate : 0.230 FPS
Count of elements : 1578
Stream size : 62.7 KiB (0%)
Title : Netflix WEB-DL
Language : Swedish
Default : No
Forced : No

Text #33
ID : 36
Format : UTF-8
Codec ID : S_TEXT/UTF8
Codec ID/Info : UTF-8 Plain Text
Duration : 1 h 54 min
Bit rate : 161 b/s
Frame rate : 0.279 FPS
Count of elements : 1911
Stream size : 135 KiB (0%)
Title : Netflix WEB-DL
Language : Thai
Default : No
Forced : No

Menu
00:00:00.000 : en:Chapter 01
00:16:28.070 : en:Chapter 02
00:29:39.361 : en:Chapter 03
00:46:02.176 : en:Chapter 04
01:01:14.838

Files