Abigail 2024 2160p MA WEB-DL DV HDR10 TrueHD Atmos 7 1 HEVC-VD0N

After a group of criminals kidnap the ballerina daughter of a powerful underworld figure, they retreat to an isolated mansion, unaware that they're locked inside with no normal little girl.

Year: 2024
Duration: 109 min
Release date: Wednesday 29th May 2024
Genre: Horror, Thriller

Rating

7/10
(12599 Votes)

0

Your Rating

Stars:
Melissa Barrera, Dan Stevens, Alisha Weir, William Catlett, Kathryn Newton, Kevin Durand, Angus Cloud, Giancarlo Esposito

* HDR 4K MA WEB-DL + BD audio (DV + HDR10 compatible)
* BD REMUX Comparisons: https://slow.pics/c/e8PlSWEf

Format : Matroska
Format version : Version 4
File size : 22.8 GiB
Duration : 1 h 49 min
Overall bit rate mode : Variable
Overall bit rate : 29.8 Mb/s
Frame rate : 23.976 FPS
Writing application : mkvmerge v83.0 ('Circle Of Friends') 64-bit
Writing library : libebml v1.4.5 + libmatroska v1.7.1

Video
ID : 1
Format : HEVC
Format/Info : High Efficiency Video Coding
Format profile : Main 10@L5@High
HDR format : Dolby Vision, Version 1.0, Profile 8.1, dvhe.08.06, BL+RPU, no metadata compression, HDR10 compatible / SMPTE ST 2086, Version HDR10, HDR10 compatible
Codec ID : V_MPEGH/ISO/HEVC
Duration : 1 h 49 min
Bit rate : 24.8 Mb/s
Width : 3 840 pixels
Height : 2 160 pixels
Display aspect ratio : 16:9
Frame rate mode : Constant
Frame rate : 23.976 (24000/1001) FPS
Color space : YUV
Chroma subsampling : 4:2:0 (Type 2)
Bit depth : 10 bits
Bits/(Pixel*Frame) : 0.125
Stream size : 19.0 GiB (83%)
Default : Yes
Forced : No
Color range : Limited
Color primaries : BT.2020
Transfer characteristics : PQ
Matrix coefficients : BT.2020 non-constant
Mastering display color primaries : BT.2020
Mastering display luminance : min: 0.0010 cd/m2, max: 1000 cd/m2
Maximum Content Light Level : 1000 cd/m2
Maximum Frame-Average Light Level : 140 cd/m2

Audio #1
ID : 2
Format : MLP FBA
Format/Info : Meridian Lossless Packing FBA
Commercial name : Dolby TrueHD
Codec ID : A_TRUEHD
Duration : 1 h 49 min
Bit rate mode : Variable
Bit rate : 3 944 kb/s
Maximum bit rate : 6 240 kb/s
Channel(s) : 8 channels
Channel layout : L R C LFE Ls Rs Lb Rb
Sampling rate : 48.0 kHz
Frame rate : 1 200.000 FPS (40 SPF)
Compression mode : Lossless
Delay relative to video : 1 s 1 ms
Stream size : 3.02 GiB (13%)
Title : Dolby TrueHD Atmos
Language : English
Default : Yes
Forced : No

Audio #2
ID : 3
Format : E-AC-3 JOC
Format/Info : Enhanced AC-3 with Joint Object Coding
Commercial name : Dolby Digital Plus with Dolby Atmos
Codec ID : A_EAC3
Duration : 1 h 49 min
Bit rate mode : Constant
Bit rate : 768 kb/s
Channel(s) : 6 channels
Channel layout : L R C LFE Ls Rs
Sampling rate : 48.0 kHz
Frame rate : 31.250 FPS (1536 SPF)
Compression mode : Lossy
Delay relative to video : 1 s 1 ms
Stream size : 602 MiB (3%)
Title : DDP Atmos
Language : English
Service kind : Complete Main
Default : No
Forced : No
Complexity index : 16
Number of dynamic objects : 15
Bed channel count : 1 channel
Bed channel configuration : LFE
Dialog Normalization : -25 dB
compr : -0.28 dB
dialnorm_Average : -25 dB
dialnorm_Minimum : -25 dB
dialnorm_Maximum : -25 dB

Audio #3
ID : 4
Format : AC-3
Format/Info : Audio Coding 3
Commercial name : Dolby Digital
Codec ID : A_AC3
Duration : 1 h 49 min
Bit rate mode : Constant
Bit rate : 192 kb/s
Channel(s) : 2 channels
Channel layout : L R
Sampling rate : 48.0 kHz
Frame rate : 31.250 FPS (1536 SPF)
Compression mode : Lossy
Delay relative to video : 1 s 1 ms
Stream size : 150 MiB (1%)
Title : Commentary by Directors Matt Bettinelli-Olpin, Tyler Gillett and editor Michael P. Shawver
Language : English
Service kind : Complete Main
Default : No
Forced : No
Dialog Normalization : -31 dB
compr : 5.74 dB
dynrng : 5.60 dB
dsurmod : Not Dolby Surround encoded
ltrtcmixlev : -3.0 dB
ltrtsurmixlev : -3.0 dB
lorocmixlev : -3.0 dB
lorosurmixlev : -3.0 dB
dialnorm_Average : -31 dB
dialnorm_Minimum : -31 dB
dialnorm_Maximum : -31 dB

Text #1
ID : 5
Format : UTF-8
Codec ID : S_TEXT/UTF8
Codec ID/Info : UTF-8 Plain Text
Duration : 1 h 44 min
Bit rate : 50 b/s
Frame rate : 0.235 FPS
Count of elements : 1478
Stream size : 38.8 KiB (0%)
Language : English
Default : No
Forced : No

Text #2
ID : 6
Format : UTF-8
Codec ID : S_TEXT/UTF8
Codec ID/Info : UTF-8 Plain Text
Duration : 1 h 49 min
Bit rate : 59 b/s
Frame rate : 0.284 FPS
Count of elements : 1864
Stream size : 47.7 KiB (0%)
Title : SDH
Language : English
Default : No
Forced : No

Text #3
ID : 7
Format : UTF-8
Codec ID : S_TEXT/UTF8
Codec ID/Info : UTF-8 Plain Text
Duration : 1 h 46 min
Bit rate : 42 b/s
Frame rate : 0.195 FPS
Count of elements : 1251
Stream size : 33.6 KiB (0%)
Title : Latin American
Language : Spanish (Latin America)
Default : No
Forced : No

Text #4
ID : 8
Format : UTF-8
Codec ID : S_TEXT/UTF8
Codec ID/Info : UTF-8 Plain Text
Duration : 1 h 46 min
Bit rate : 42 b/s
Frame rate : 0.195 FPS
Count of elements : 1248
Stream size : 33.6 KiB (0%)
Title : Canadian
Language : French (CA)
Default : No
Forced : No

Text #5
ID : 9
Format : UTF-8
Codec ID : S_TEXT/UTF8
Codec ID/Info : UTF-8 Plain Text
Duration : 1 h 46 min
Bit rate : 37 b/s
Frame rate : 0.128 FPS
Count of elements : 820
Stream size : 29.6 KiB (0%)
Language : Danish
Default : No
Forced : No

Text #6
ID : 10
Format : UTF-8
Codec ID : S_TEXT/UTF8
Codec ID/Info : UTF-8 Plain Text
Duration : 1 h 46 min
Bit rate : 38 b/s
Frame rate : 0.180 FPS
Count of elements : 1152
Stream size : 30.3 KiB (0%)
Language : Finnish
Default : No
Forced : No

Text #7
ID : 11
Format : PGS
Muxing mode : zlib
Codec ID : S_HDMV/PGS
Codec ID/Info : Picture based subtitle format used on BDs/HD-DVDs
Duration : 1 h 46 min
Bit rate : 28.9 kb/s
Frame rate : 0.390 FPS
Count of elements : 2498
Stream size : 22.1 MiB (0%)
Title : Canadian
Language : French
Default : No
Forced : No

Text #8
ID : 12
Format : UTF-8
Codec ID : S_TEXT/UTF8
Codec ID/Info : UTF-8 Plain Text
Duration : 1 h 46 min
Bit rate : 40 b/s
Frame rate : 0.185 FPS
Count of elements : 1183
Stream size : 31.7 KiB (0%)
Language : Norwegian
Default : No
Forced : No

Text #9
ID : 13
Format : PGS
Muxing mode : zlib
Codec ID : S_HDMV/PGS
Codec ID/Info : Picture based subtitle format used on BDs/HD-DVDs
Duration : 1 h 46 min
Bit rate : 29.6 kb/s
Frame rate : 0.389 FPS
Count of elements : 2496
Stream size : 22.6 MiB (0%)
Title : Latin American
Language : Spanish
Default : No
Forced : No

Text #10
ID : 14
Format : UTF-8
Codec ID : S_TEXT/UTF8
Codec ID/Info : UTF-8 Plain Text
Duration : 1 h 46 min
Bit rate : 41 b/s
Frame rate : 0.145 FPS
Count of elements : 933
Stream size : 32.3 KiB (0%)
Language : Swedish
Default : No
Forced : No

Menu
00:00:00.000 : en:Chapter 01
00:03:58.071 : en:Chapter 02
00:11:30.565 : en:Chapter 03
00:15:10.284 : en:Chapter 04
00:19:58.155 : en:Chapter 05
00:25:56.513 : en:Chapter 06
00:33:38.099 : en:Chapter 07
00:38:36.981 : en:Chapter 08
00:46:24.949 : en:Chapter 09
00:50:25.606 : en:Chapter 10
00:53:47.933 : en:Chapter 11
00:57:20.354 : en:Chapter 12
01:04:18.897 : en:Chapter 13
01:11:31.746 : en:Chapter 14
01:19:01.070 : en:Chapter 15
01:25:04.308 : en:Chapter 16
01:30:25.337 : en:Chapter 17
01:34:35.003 : en:Chapter 18
01:40:15.801 : en:Chapter 19
01:45:23.442 : en:Chapter 20

Files