Tarot 2024 2160p iT WEB-DL DV HDR10 DTS-HD MA 5 1 HEVC-VD0N

When a group of friends recklessly violates the sacred rule of Tarot readings, they unknowingly unleash an unspeakable evil trapped within the cursed cards. One by one, they come face to face with fate and end up in a race against death.

Year: 2024
Duration: 92 min
Release date: Wednesday 1st May 2024
Genre: Horror

Rating

5/10
(4529 Votes)

0

Your Rating

Stars:
Harriet Slater, Adain Bradley, Jacob Batalon, Avantika, Humberly González, Wolfgang Novogratz, Larsen Thompson, Olwen Fouéré

* HDR 4K itunes WEB-DL + BD audio (DV + HDR10 compatible)
* fixed framerate bitstream
* BD REMUX Comparisons: https://slow.pics/c/XXpB8CgE

Format : Matroska
Format version : Version 4
File size : 17.5 GiB
Duration : 1 h 31 min
Overall bit rate mode : Variable
Overall bit rate : 27.3 Mb/s
Frame rate : 23.976 FPS
Writing application : mkvmerge v83.0 ('Circle Of Friends') 64-bit
Writing library : libebml v1.4.5 + libmatroska v1.7.1

Video
ID : 1
Format : HEVC
Format/Info : High Efficiency Video Coding
Format profile : Main 10@L5@High
HDR format : Dolby Vision, Version 1.0, Profile 8.1, dvhe.08.06, BL+RPU, no metadata compression, HDR10 compatible / SMPTE ST 2094 App 4, Version HDR10+ Profile B, HDR10+ Profile B compatible
Codec ID : V_MPEGH/ISO/HEVC
Duration : 1 h 31 min
Bit rate : 24.0 Mb/s
Width : 3 840 pixels
Height : 1 606 pixels
Display aspect ratio : 2.39:1
Frame rate mode : Constant
Frame rate : 23.976 (24000/1001) FPS
Color space : YUV
Chroma subsampling : 4:2:0 (Type 2)
Bit depth : 10 bits
Bits/(Pixel*Frame) : 0.162
Stream size : 15.4 GiB (88%)
Default : Yes
Forced : No
Color range : Limited
Color primaries : BT.2020
Transfer characteristics : PQ
Matrix coefficients : BT.2020 non-constant
Mastering display color primaries : BT.2020
Mastering display luminance : min: 0.0050 cd/m2, max: 1000 cd/m2
Maximum Content Light Level : 905 cd/m2
Maximum Frame-Average Light Level : 170 cd/m2

Audio #1
ID : 2
Format : DTS XLL
Format/Info : Digital Theater Systems
Commercial name : DTS-HD Master Audio
Codec ID : A_DTS
Duration : 1 h 31 min
Bit rate mode : Variable
Bit rate : 2 200 kb/s
Channel(s) : 6 channels
Channel layout : C L R Ls Rs LFE
Sampling rate : 48.0 kHz
Frame rate : 93.750 FPS (512 SPF)
Bit depth : 16 bits
Compression mode : Lossless
Delay relative to video : 2 ms
Stream size : 1.41 GiB (8%)
Title : DTS-HD MA 5.1
Language : English
Default : Yes
Forced : No

Audio #2
ID : 3
Format : E-AC-3
Format/Info : Enhanced AC-3
Commercial name : Dolby Digital Plus
Codec ID : A_EAC3
Duration : 1 h 31 min
Bit rate mode : Constant
Bit rate : 1 024 kb/s
Channel(s) : 6 channels
Channel layout : L R C LFE Ls Rs
Sampling rate : 48.0 kHz
Frame rate : 31.250 FPS (1536 SPF)
Bit depth : 32 bits
Compression mode : Lossy
Delay relative to video : 22 ms
Stream size : 673 MiB (4%)
Title : DDP @ 1024kbps
Language : English
Service kind : Complete Main
Default : No
Forced : No
Dialog Normalization : -31 dB
dialnorm_Average : -31 dB
dialnorm_Minimum : -31 dB
dialnorm_Maximum : -31 dB

Text #1
ID : 4
Format : UTF-8
Codec ID : S_TEXT/UTF8
Codec ID/Info : UTF-8 Plain Text
Duration : 1 h 25 min
Bit rate : 56 b/s
Frame rate : 0.223 FPS
Count of elements : 1142
Stream size : 35.4 KiB (0%)
Language : English (US)
Default : No
Forced : No

Text #2
ID : 5
Format : PGS
Muxing mode : zlib
Codec ID : S_HDMV/PGS
Codec ID/Info : Picture based subtitle format used on BDs/HD-DVDs
Duration : 1 h 31 min
Bit rate : 39.3 kb/s
Frame rate : 0.517 FPS
Count of elements : 2843
Stream size : 25.8 MiB (0%)
Title : SDH
Language : English
Default : No
Forced : No

Text #3
ID : 6
Format : PGS
Muxing mode : zlib
Codec ID : S_HDMV/PGS
Codec ID/Info : Picture based subtitle format used on BDs/HD-DVDs
Duration : 1 h 31 min
Bit rate : 27.5 kb/s
Frame rate : 0.521 FPS
Count of elements : 2852
Stream size : 17.9 MiB (0%)
Title : Mandarin Simplified
Language : Chinese
Default : No
Forced : No

Text #4
ID : 7
Format : PGS
Muxing mode : zlib
Codec ID : S_HDMV/PGS
Codec ID/Info : Picture based subtitle format used on BDs/HD-DVDs
Duration : 1 h 31 min
Bit rate : 27.5 kb/s
Frame rate : 0.431 FPS
Count of elements : 2356
Stream size : 18.0 MiB (0%)
Title : Mandarin Traditional
Language : Chinese
Default : No
Forced : No

Text #5
ID : 8
Format : UTF-8
Codec ID : S_TEXT/UTF8
Codec ID/Info : UTF-8 Plain Text
Duration : 1 h 31 min
Bit rate : 46 b/s
Frame rate : 0.143 FPS
Count of elements : 780
Stream size : 30.8 KiB (0%)
Language : Danish
Default : No
Forced : No

Text #6
ID : 9
Format : UTF-8
Codec ID : S_TEXT/UTF8
Codec ID/Info : UTF-8 Plain Text
Duration : 1 h 31 min
Bit rate : 41 b/s
Frame rate : 0.139 FPS
Count of elements : 762
Stream size : 27.7 KiB (0%)
Language : Dutch
Default : No
Forced : No

Text #7
ID : 10
Format : UTF-8
Codec ID : S_TEXT/UTF8
Codec ID/Info : UTF-8 Plain Text
Duration : 1 h 31 min
Bit rate : 46 b/s
Frame rate : 0.231 FPS
Count of elements : 1266
Stream size : 31.2 KiB (0%)
Language : Finnish
Default : No
Forced : No

Text #8
ID : 11
Format : PGS
Muxing mode : zlib
Codec ID : S_HDMV/PGS
Codec ID/Info : Picture based subtitle format used on BDs/HD-DVDs
Duration : 1 h 31 min
Bit rate : 24.7 kb/s
Frame rate : 0.370 FPS
Count of elements : 2024
Stream size : 16.1 MiB (0%)
Language : French
Default : No
Forced : No

Text #9
ID : 12
Format : UTF-8
Codec ID : S_TEXT/UTF8
Codec ID/Info : UTF-8 Plain Text
Duration : 1 h 31 min
Bit rate : 50 b/s
Frame rate : 0.214 FPS
Count of elements : 1170
Stream size : 33.6 KiB (0%)
Language : German
Default : No
Forced : No

Text #10
ID : 13
Format : UTF-8
Codec ID : S_TEXT/UTF8
Codec ID/Info : UTF-8 Plain Text
Duration : 1 h 31 min
Bit rate : 46 b/s
Frame rate : 0.187 FPS
Count of elements : 1022
Stream size : 31.4 KiB (0%)
Language : Italian
Default : No
Forced : No

Text #11
ID : 14
Format : PGS
Muxing mode : zlib
Codec ID : S_HDMV/PGS
Codec ID/Info : Picture based subtitle format used on BDs/HD-DVDs
Duration : 1 h 31 min
Bit rate : 26.8 kb/s
Frame rate : 0.431 FPS
Count of elements : 2360
Stream size : 17.5 MiB (0%)
Language : Korean
Default : No
Forced : No

Text #12
ID : 15
Format : UTF-8
Codec ID : S_TEXT/UTF8
Codec ID/Info : UTF-8 Plain Text
Duration : 1 h 31 min
Bit rate : 41 b/s
Frame rate : 0.139 FPS
Count of elements : 760
Stream size : 27.9 KiB (0%)
Language : Norwegian
Default : No
Forced : No

Text #13
ID : 16
Format : UTF-8
Codec ID : S_TEXT/UTF8
Codec ID/Info : UTF-8 Plain Text
Duration : 1 h 31 min
Bit rate : 47 b/s
Frame rate : 0.186 FPS
Count of elements : 1019
Stream size : 31.9 KiB (0%)
Language : Polish
Default : No
Forced : No

Text #14
ID : 17
Format : UTF-8
Codec ID : S_TEXT/UTF8
Codec ID/Info : UTF-8 Plain Text
Duration : 1 h 31 min
Bit rate : 47 b/s
Frame rate : 0.188 FPS
Count of elements : 1030
Stream size : 31.6 KiB (0%)
Language : Portuguese
Default : No
Forced : No

Text #15
ID : 18
Format : UTF-8
Codec ID : S_TEXT/UTF8
Codec ID/Info : UTF-8 Plain Text
Duration : 1 h 31 min
Bit rate : 49 b/s
Frame rate : 0.203 FPS
Count of elements : 1108
Stream size : 33.1 KiB (0%)
Title : Brazilian
Language : Portuguese
Default : No
Forced : No

Text #16
ID : 19
Format : PGS
Muxing mode : zlib
Codec ID : S_HDMV/PGS
Codec ID/Info : Picture based subtitle format used on BDs/HD-DVDs
Duration : 1 h 31 min
Bit rate : 29.9 kb/s
Frame rate : 0.403 FPS
Count of elements : 2204
Stream size : 19.5 MiB (0%)
Language : Spanish
Default : No
Forced : No

Text #17
ID : 20
Format : UTF-8
Codec ID : S_TEXT/UTF8
Codec ID/Info : UTF-8 Plain Text
Duration : 1 h 31 min
Bit rate : 45 b/s
Frame rate : 0.140 FPS
Count of elements : 767
Stream size : 30.6 KiB (0%)
Language : Swedish
Default : No
Forced : No

Text #18
ID : 21
Format : PGS
Muxing mode : zlib
Codec ID : S_HDMV/PGS
Codec ID/Info : Picture based subtitle format used on BDs/HD-DVDs
Duration : 1 h 31 min
Bit rate : 29.8 kb/s
Frame rate : 0.405 FPS
Count of elements : 2216
Stream size : 19.4 MiB (0%)
Language : Thai
Default : No
Forced : No

Menu
00:00:00.000 : en:Chapter 01
00:04:23.930 : en:Chapter 02
00:10:31.589 : en:Chapter 03
00:16:35.159 : en:Chapter 04
00:21:18.818 : en:Chapter 05
00:27:13.839 : en:Chapter 06
00:34:10.757 : en:Chapter 07
00:39:20.608 : en:Chapter 08
00:43:06.166 : en:Chapter 09
00:50:29.943 : en:Chapter 10
00:56:00.815 : en:Chapter 11
01:00:50.771 : en:Chapter 12
01:04:17.269 : en:Chapter 13
01:08:14.965 : en:Chapter 14
01:13:26.109 : en:Chapter 15
01:23:21.578 : en:Chapter 16

Files