Kingdom of the Planet of the Apes 2024 2160p AMZN WEB-DL DDP5 1 Atmos H 265-BYNDR

Many years after the reign of Caesar, a young ape goes on a journey that will lead him to question everything he's been taught about the past and make choices that will define a future for apes and humans alike.

Year: 2024
Duration: 145 min
Release date: Wednesday 8th May 2024
Genre: Action, Adventure, Sci-Fi

Rating

7.4/10
(10647 Votes)

0

Your Rating

Stars:
Freya Allan, Kevin Durand, Dichen Lachman, William H. Macy, Owen Teague, Lydia Peckham, Peter Macon, Sara Wiseman

General
Unique ID : 39959518138974015809023580028234210765 (0x1E0FEC5A6BC058CB72EDD1104B159DCD)
Complete name : Kingdom.of.the.Planet.of.the.Apes.2024.2160p.AMZN.WEB-DL.DDP5.1.Atmos.H.265-BYNDR.mkv
Format : Matroska
Format version : Version 4
File size : 15.6 GiB
Duration : 2 h 26 min
Overall bit rate : 15.3 Mb/s
Writing application : mkvmerge v83.0 ('Circle Of Friends') 64-bit
Writing library : libebml v1.4.5 + libmatroska v1.7.1

Video
ID : 1
Format : HEVC
Format/Info : High Efficiency Video Coding
Format profile : Main@L5@Main
Codec ID : V_MPEGH/ISO/HEVC
Duration : 2 h 26 min
Bit rate : 14.6 Mb/s
Width : 3 840 pixels
Height : 1 600 pixels
Display aspect ratio : 2.40:1
Frame rate mode : Constant
Frame rate : 24.000 FPS
Color space : YUV
Chroma subsampling : 4:2:0
Bit depth : 8 bits
Bits/(Pixel*Frame) : 0.099
Stream size : 14.9 GiB (95%)
Default : Yes
Forced : No
Color range : Limited
Color primaries : BT.709
Transfer characteristics : BT.709
Matrix coefficients : BT.709

Audio
ID : 2
Format : E-AC-3 JOC
Format/Info : Enhanced AC-3 with Joint Object Coding
Commercial name : Dolby Digital Plus with Dolby Atmos
Codec ID : A_EAC3
Duration : 2 h 24 min
Bit rate mode : Constant
Bit rate : 768 kb/s
Channel(s) : 6 channels
Channel layout : L R C LFE Ls Rs
Sampling rate : 48.0 kHz
Frame rate : 31.250 FPS (1536 SPF)
Compression mode : Lossy
Delay relative to video : 32 ms
Stream size : 795 MiB (5%)
Language : English
Service kind : Complete Main
Default : Yes
Forced : No
Complexity index : 16
Number of dynamic objects : 15
Bed channel count : 1 channel
Bed channel configuration : LFE

Text #1
ID : 3
Format : UTF-8
Codec ID : S_TEXT/UTF8
Codec ID/Info : UTF-8 Plain Text
Duration : 2 h 9 min
Bit rate : 0 b/s
Count of elements : 12
Stream size : 178 Bytes (0%)
Title : Forced
Language : English
Default : No
Forced : Yes

Text #2
ID : 4
Format : UTF-8
Codec ID : S_TEXT/UTF8
Codec ID/Info : UTF-8 Plain Text
Duration : 2 h 11 min
Bit rate : 17 b/s
Count of elements : 932
Stream size : 17.1 KiB (0%)
Language : English
Default : No
Forced : No

Text #3
ID : 5
Format : UTF-8
Codec ID : S_TEXT/UTF8
Codec ID/Info : UTF-8 Plain Text
Duration : 2 h 15 min
Bit rate : 19 b/s
Count of elements : 952
Stream size : 19.3 KiB (0%)
Title : Latin American
Language : Spanish
Default : No
Forced : No

Text #4
ID : 6
Format : UTF-8
Codec ID : S_TEXT/UTF8
Codec ID/Info : UTF-8 Plain Text
Duration : 2 h 17 min
Bit rate : 22 b/s
Count of elements : 1018
Stream size : 23.2 KiB (0%)
Title : Canadian
Language : French
Default : No
Forced : No

Menu
00:00:00.032 : en:Chapter 01
00:02:30.240 : en:Chapter 02
00:08:43.740 : en:Chapter 03
00:10:51.032 : en:Chapter 04
00:18:50.448 : en:Chapter 05
00:31:34.323 : en:Chapter 06
00:38:28.573 : en:Chapter 07
00:48:13.698 : en:Chapter 08
00:55:33.115 : en:Chapter 09
01:04:40.907 : en:Chapter 10
01:12:49.448 : en:Chapter 11
01:16:34.573 : en:Chapter 12
01:25:22.282 : en:Chapter 13
01:33:13.032 : en:Chapter 14
01:36:26.657 : en:Chapter 15
01:49:14.323 : en:Chapter 16
01:55:05.115 : en:Chapter 17
02:04:59.865 : en:Chapter 18
02:09:31.490 : en:Chapter 19
02:16:26.198 : en:Chapter 20

Files