Chinatown 1974 UHD BluRay DDP 5 1 DoVi HDR x265-SM737

A private detective investigating an adultery case stumbles on to a scheme of murder that has something to do with water.

Year: 1974
Duration: 130 min
Release date: Thursday 20th June 1974
Genre: Crime, Drama, Mystery, Thriller

Rating

8.4/10
(106178 Votes)

0

Your Rating

Stars:
Jack Nicholson, Faye Dunaway, John Huston, Perry Lopez

https://www.imdb.com/title/tt0071315/

General
Unique ID : 234786028704619433230459735366179372085 (0xB0A224F231DBD7700C6178FC73463C35)
Complete name : Chinatown.1974.UHD.BluRay.DDP.5.1.DoVi.HDR.x265-SM737.mkv
Format : Matroska
Format version : Version 4
File size : 6.07 GiB
Duration : 2 h 10 min
Overall bit rate : 6 653 kb/s
Frame rate : 23.976 FPS
Encoded date : 2024-06-23 03:39:22 UTC
Writing application : mkvmerge v82.0 ('I'm The President') 64-bit
Writing library : libebml v1.4.5 + libmatroska v1.7.1 / Lavf61.1.100

Video
ID : 1
Format : HEVC
Format/Info : High Efficiency Video Coding
Format profile : Main 10@L5.2@High
HDR format : Dolby Vision, Version 1.0, dvhe.08.10, BL+RPU, HDR10 compatible / SMPTE ST 2086, HDR10 compatible / SMPTE ST 2086, HDR10 compatible
Codec ID : V_MPEGH/ISO/HEVC
Duration : 2 h 10 min
Bit rate : 5 038 kb/s
Width : 1 920 pixels
Height : 816 pixels
Display aspect ratio : 2.35:1
Frame rate mode : Constant
Frame rate : 23.976 (24000/1001) FPS
Color space : YUV
Chroma subsampling : 4:2:0 (Type 2)
Bit depth : 10 bits
Bits/(Pixel*Frame) : 0.134
Stream size : 4.59 GiB (76%)
Writing library : x265 3.6+1-aa7f602f7:[Windows][GCC 13.2.0][64 bit] 10bit
Encoding settings : cpuid=1111039 / frame-threads=4 / numa-pools=16 / wpp / no-pmode / no-pme / no-psnr / no-ssim / log-level=2 / input-csp=1 / input-res=1920x816 / interlace=0 / total-frames=0 / level-idc=52 / high-tier=1 / uhd-bd=0 / ref=6 / no-allow-non-conformance / repeat-headers / annexb / aud / no-eob / no-eos / hrd / info / hash=0 / temporal-layers=0 / open-gop / min-keyint=24 / keyint=240 / gop-lookahead=0 / bframes=8 / b-adapt=2 / b-pyramid / bframe-bias=0 / rc-lookahead=40 / lookahead-slices=4 / scenecut=40 / no-hist-scenecut / radl=0 / no-splice / no-intra-refresh / ctu=64 / min-cu-size=8 / rect / no-amp / max-tu-size=32 / tu-inter-depth=1 / tu-intra-depth=1 / limit-tu=0 / rdoq-level=2 / dynamic-rd=0.00 / no-ssim-rd / signhide / no-tskip / nr-intra=0 / nr-inter=0 / no-constrained-intra / strong-intra-smoothing / max-merge=3 / limit-refs=3 / limit-modes / me=3 / subme=3 / merange=57 / temporal-mvp / no-frame-dup / no-hme / no-weightp / no-weightb / no-analyze-src-pics / deblock=-3:-3 / no-sao / no-sao-non-deblock / rd=4 / selective-sao=0 / no-early-skip / rskip / no-fast-intra / no-tskip-fast / no-cu-lossless / no-b-intra / no-splitrd-skip / rdpenalty=0 / psy-rd=2.00 / psy-rdoq=1.00 / no-rd-refine / no-lossless / cbqpoffs=0 / crqpoffs=0 / rc=abr / bitrate=5000 / qcomp=0.60 / qpstep=4 / stats-write=0 / stats-read=2 / cplxblur=20.0 / qblur=0.5 / vbv-maxrate=240000 / vbv-bufsize=240000 / vbv-init=0.9 / min-vbv-fullness=50.0 / max-vbv-fullness=80.0 / ipratio=1.40 / pbratio=1.30 / aq-mode=4 / aq-strength=1.00 / cutree / zone-count=0 / no-strict-cbr / qg-size=32 / no-rc-grain / qpmax=69 / qpmin=0 / no-const-vbv / sar=1 / overscan=0 / videoformat=5 / range=0 / colorprim=9 / transfer=16 / colormatrix=9 / chromaloc=1 / chromaloc-top=2 / chromaloc-bottom=2 / display-window=0 / master-display=G(13250,34500)B(7500,3000)R(34000,16000)WP(15635,16450)L(40000000,50) / cll=1269,52 / min-luma=0 / max-luma=1023 / log2-max-poc-lsb=8 / vui-timing-info / vui-hrd-info / slices=1 / no-opt-qp-pps / no-opt-ref-list-length-pps / no-multi-pass-opt-rps / scenecut-bias=0.05 / no-opt-cu-delta-qp / no-aq-motion / hdr10 / hdr10-opt / no-dhdr10-opt / no-idr-recovery-sei / analysis-reuse-level=0 / analysis-save-reuse-level=0 / analysis-load-reuse-level=0 / scale-factor=0 / refine-intra=0 / refine-inter=0 / refine-mv=1 / refine-ctu-distortion=0 / no-limit-sao / ctu-info=0 / no-lowpass-dct / refine-analysis-type=0 / copy-pic=1 / max-ausize-factor=1.0 / no-dynamic-refine / no-single-sei / no-hevc-aq / no-svt / no-field / qp-adaptation-range=1.00 / scenecut-aware-qp=0conformance-window-offsets / right=0 / bottom=0 / decoder-max-rate=0 / no-vbv-live-multi-pass / no-mcstf / no-sbrc
Default : Yes
Forced : No
Color range : Limited
Color primaries : BT.2020
Transfer characteristics : PQ
Matrix coefficients : BT.2020 non-constant
Mastering display color primaries : Display P3
Mastering display luminance : min: 0.0050 cd/m2, max: 4000 cd/m2
Maximum Content Light Level : 1269
MaxCLL_Original : 1269 cd/m2
Maximum Frame-Average Light Level : 52
MaxFALL_Original : 52 cd/m2

Audio #1
ID : 2
Format : E-AC-3
Format/Info : Enhanced AC-3
Commercial name : Dolby Digital Plus
Codec ID : A_EAC3
Duration : 2 h 10 min
Bit rate mode : Constant
Bit rate : 768 kb/s
Channel(s) : 6 channels
Channel layout : L R C LFE Ls Rs
Sampling rate : 48.0 kHz
Frame rate : 31.250 FPS (1536 SPF)
Compression mode : Lossy
Stream size : 717 MiB (12%)
Title : Surround
Language : English
Service kind : Complete Main
Default : Yes
Forced : No

Audio #2
ID : 3
Format : E-AC-3
Format/Info : Enhanced AC-3
Commercial name : Dolby Digital Plus
Codec ID : A_EAC3
Duration : 2 h 10 min
Bit rate mode : Constant
Bit rate : 224 kb/s
Channel(s) : 2 channels
Channel layout : L R
Sampling rate : 48.0 kHz
Frame rate : 31.250 FPS (1536 SPF)
Compression mode : Lossy
Delay relative to video : 23 ms
Stream size : 209 MiB (3%)
Title : Original
Language : English
Service kind : Complete Main
Default : No
Forced : No

Audio #3
ID : 4
Format : AC-3
Format/Info : Audio Coding 3
Commercial name : Dolby Digital
Codec ID : A_AC3
Duration : 2 h 10 min
Bit rate mode : Constant
Bit rate : 224 kb/s
Channel(s) : 2 channels
Channel layout : L R
Sampling rate : 48.0 kHz
Frame rate : 31.250 FPS (1536 SPF)
Compression mode : Lossy
Delay relative to video : 23 ms
Stream size : 209 MiB (3%)
Title : Commentary with screenwriter Robert Towne and David Fincher
Language : English
Service kind : Complete Main
Default : No
Forced : No

Text #1
ID : 5
Format : PGS
Muxing mode : zlib
Codec ID : S_HDMV/PGS
Codec ID/Info : Picture based subtitle format used on BDs/HD-DVDs
Duration : 2 h 8 min
Bit rate : 41.2 kb/s
Frame rate : 0.421 FPS
Count of elements : 3250
Stream size : 37.9 MiB (1%)
Title : SDH
Language : English
Default : Yes
Forced : No

Text #2
ID : 6
Format : PGS
Muxing mode : zlib
Codec ID : S_HDMV/PGS
Codec ID/Info : Picture based subtitle format used on BDs/HD-DVDs
Duration : 2 h 7 min
Bit rate : 37.5 kb/s
Frame rate : 0.381 FPS
Count of elements : 2924
Stream size : 34.3 MiB (1%)
Language : English
Default : No
Forced : No

Text #3
ID : 7
Format : ASS
Codec ID : S_TEXT/ASS
Codec ID/Info : Advanced Sub Station Alpha
Duration : 2 h 6 min
Bit rate : 86 b/s
Frame rate : 0.122 FPS
Count of elements : 924
Compression mode : Lossless
Stream size : 79.7 KiB (0%)
Language : Arabic
Default : No
Forced : No

Text #4
ID : 8
Format : ASS
Codec ID : S_TEXT/ASS
Codec ID/Info : Advanced Sub Station Alpha
Duration : 2 h 8 min
Bit rate : 107 b/s
Frame rate : 0.154 FPS
Count of elements : 1188
Compression mode : Lossless
Stream size : 101 KiB (0%)
Language : Bulgarian
Default : No
Forced : No

Text #5
ID : 9
Format : ASS
Codec ID : S_TEXT/ASS
Codec ID/Info : Advanced Sub Station Alpha
Duration : 2 h 6 min
Bit rate : 58 b/s
Frame rate : 0.123 FPS
Count of elements : 933
Compression mode : Lossless
Stream size : 54.2 KiB (0%)
Title : Cantonese
Language : Chinese
Default : No
Forced : No

Text #6
ID : 10
Format : ASS
Codec ID : S_TEXT/ASS
Codec ID/Info : Advanced Sub Station Alpha
Duration : 2 h 6 min
Bit rate : 58 b/s
Frame rate : 0.123 FPS
Count of elements : 933
Compression mode : Lossless
Stream size : 54.1 KiB (0%)
Title : Mandarin Traditional
Language : Chinese
Default : No
Forced : No

Text #7
ID : 11
Format : PGS
Muxing mode : zlib
Codec ID : S_HDMV/PGS
Codec ID/Info : Picture based subtitle format used on BDs/HD-DVDs
Duration : 2 h 7 min
Bit rate : 32.3 kb/s
Frame rate : 0.365 FPS
Count of elements : 2801
Stream size : 29.5 MiB (0%)
Language : Danish
Default : No
Forced : No

Text #8
ID : 12
Format : PGS
Muxing mode : zlib
Codec ID : S_HDMV/PGS
Codec ID/Info : Picture based subtitle format used on BDs/HD-DVDs
Duration : 2 h 7 min
Bit rate : 28.8 kb/s
Frame rate : 0.321 FPS
Count of elements : 2464
Stream size : 26.4 MiB (0%)
Language : Dutch
Default : No
Forced : No

Text #9
ID : 13
Format : PGS
Muxing mode : zlib
Codec ID : S_HDMV/PGS
Codec ID/Info : Picture based subtitle format used on BDs/HD-DVDs
Duration : 2 h 7 min
Bit rate : 35.3 kb/s
Frame rate : 0.364 FPS
Count of elements : 2793
Stream size : 32.3 MiB (1%)
Language : Finnish
Default : No
Forced : No

Text #10
ID : 14
Format : PGS
Muxing mode : zlib
Codec ID : S_HDMV/PGS
Codec ID/Info : Picture based subtitle format used on BDs/HD-DVDs
Duration : 2 h 7 min
Bit rate : 27.2 kb/s
Frame rate : 0.330 FPS
Count of elements : 2536
Stream size : 24.9 MiB (0%)
Language : French
Default : No
Forced : No

Text #11
ID : 15
Format : PGS
Muxing mode : zlib
Codec ID : S_HDMV/PGS
Codec ID/Info : Picture based subtitle format used on BDs/HD-DVDs
Duration : 2 h 6 min
Bit rate : 24.7 kb/s
Frame rate : 0.334 FPS
Count of elements : 2532
Stream size : 22.3 MiB (0%)
Title : Canadian
Language : French
Default : No
Forced : No

Text #12
ID : 16
Format : PGS
Muxing mode : zlib
Codec ID : S_HDMV/PGS
Codec ID/Info : Picture based subtitle format used on BDs/HD-DVDs
Duration : 2 h 7 min
Bit rate : 32.4 kb/s
Frame rate : 0.267 FPS
Count of elements : 2046
Stream size : 29.7 MiB (0%)
Language : German
Default : No
Forced : No

Text #13
ID : 17
Format : PGS
Muxing mode : zlib
Codec ID : S_HDMV/PGS
Codec ID/Info : Picture based subtitle format used on BDs/HD-DVDs
Duration : 2 h 7 min
Bit rate : 30.7 kb/s
Frame rate : 0.276 FPS
Count of elements : 2116
Stream size : 28.1 MiB (0%)
Language : Italian
Default : No
Forced : No

Text #14
ID : 18
Format : PGS
Muxing mode : zlib
Codec ID : S_HDMV/PGS
Codec ID/Info : Picture based subtitle format used on BDs/HD-DVDs
Duration : 2 h 7 min
Bit rate : 20.8 kb/s
Frame rate : 0.331 FPS
Count of elements : 2542
Stream size : 19.0 MiB (0%)
Language : Japanese
Default : No
Forced : No

Text #15
ID : 19
Format : PGS
Muxing mode : zlib
Codec ID : S_HDMV/PGS
Codec ID/Info : Picture based subtitle format used on BDs/HD-DVDs
Duration : 2 h 10 min
Bit rate : 23.0 kb/s
Frame rate : 0.257 FPS
Count of elements : 2006
Stream size : 21.4 MiB (0%)
Language : Korean
Default : No
Forced : No

Text #16
ID : 20
Format : PGS
Muxing mode : zlib
Codec ID : S_HDMV/PGS
Codec ID/Info : Picture based subtitle format used on BDs/HD-DVDs
Duration : 2 h 7 min
Bit rate : 31.0 kb/s
Frame rate : 0.374 FPS
Count of elements : 2871
Stream size : 28.4 MiB (0%)
Language : Norwegian
Default : No
Forced : No

Text #17
ID : 21
Format : ASS
Codec ID : S_TEXT/ASS
Codec ID/Info : Advanced Sub Station Alpha
Duration : 2 h 6 min
Bit rate : 82 b/s
Frame rate : 0.188 FPS
Count of elements : 1424
Compression mode : Lossless
Stream size : 75.9 KiB (0%)
Language : Polish
Default : No
Forced : No

Text #18
ID : 22
Format : PGS
Muxing mode : zlib
Codec ID : S_HDMV/PGS
Codec ID/Info : Picture based subtitle format used on BDs/HD-DVDs
Duration : 2 h 6 min
Bit rate : 28.7 kb/s
Frame rate : 0.361 FPS
Count of elements : 2738
Stream size : 26.0 MiB (0%)
Title : Brazilian
Language : Portuguese
Default : No
Forced : No

Text #19
ID : 23
Format : ASS
Codec ID : S_TEXT/ASS
Codec ID/Info : Advanced Sub Station Alpha
Duration : 2 h 6 min
Bit rate : 129 b/s
Frame rate : 0.239 FPS
Count of elements : 1809
Compression mode : Lossless
Stream size : 120 KiB (0%)
Language : Russian
Default : No
Forced : No

Text #20
ID : 24
Format : PGS
Muxing mode : zlib
Codec ID : S_HDMV/PGS
Codec ID/Info : Picture based subtitle format used on BDs/HD-DVDs
Duration : 2 h 7 min
Bit rate : 29.1 kb/s
Frame rate : 0.355 FPS
Count of elements : 2728
Stream size : 26.7 MiB (0%)
Title : Castilian
Language : Spanish
Default : No
Forced : No

Text #21
ID : 25
Format : PGS
Muxing mode : zlib
Codec ID : S_HDMV/PGS
Codec ID/Info : Picture based subtitle format used on BDs/HD-DVDs
Duration : 2 h 8 min
Bit rate : 27.4 kb/s
Frame rate : 0.358 FPS
Count of elements : 2766
Stream size : 25.2 MiB (0%)
Title : Latin American
Language : Spanish
Default : No
Forced : No

Text #22
ID : 26
Format : PGS
Muxing mode : zlib
Codec ID : S_HDMV/PGS
Codec ID/Info : Picture based subtitle format used on BDs/HD-DVDs
Duration : 2 h 7 min
Bit rate : 29.5 kb/s
Frame rate : 0.334 FPS
Count of elements : 2563
Stream size : 27.0 MiB (0%)
Language : Swedish
Default : No
Forced : No

Text #23
ID : 27
Format : ASS
Codec ID : S_TEXT/ASS
Codec ID/Info : Advanced Sub Station Alpha
Duration : 2 h 6 min
Bit rate : 92 b/s
Frame rate : 0.210 FPS
Count of elements : 1596
Compression mode : Lossless
Stream size : 85.3 KiB (0%)
Language : Turkish
Default : No
Forced : No

Text #24
ID : 28
Format : PGS
Muxing mode : zlib
Codec ID : S_HDMV/PGS
Codec ID/Info : Picture based subtitle format used on BDs/HD-DVDs
Duration : 2 h 10 min
Bit rate : 62.3 kb/s
Frame rate : 0.501 FPS
Count of elements : 3922
Stream size : 58.1 MiB (1%)
Title : Commentary
Language : English
Default : No
Forced : No

Text #25
ID : 29
Format : PGS
Muxing mode : zlib
Codec ID : S_HDMV/PGS
Codec ID/Info : Picture based subtitle format used on BDs/HD-DVDs
Duration : 2 h 10 min
Bit rate : 51.7 kb/s
Frame rate : 0.484 FPS
Count of elements : 3784
Stream size : 48.2 MiB (1%)
Title : Commentary
Language : French
Default : No
Forced : No

Text #26
ID : 30
Format : PGS
Muxing mode : zlib
Codec ID : S_HDMV/PGS
Codec ID/Info : Picture based subtitle format used on BDs/HD-DVDs
Duration : 2 h 10 min
Bit rate : 59.6 kb/s
Frame rate : 0.496 FPS
Count of elements : 3880
Stream size : 55.6 MiB (1%)
Title : Commentary
Language : German
Default : No
Forced : No

Text #27
ID : 31
Format : PGS
Muxing mode : zlib
Codec ID : S_HDMV/PGS
Codec ID/Info : Picture based subtitle format used on BDs/HD-DVDs
Duration : 2 h 10 min
Bit rate : 51.1 kb/s
Frame rate : 0.485 FPS
Count of elements : 3798
Stream size : 47.7 MiB (1%)
Title : Commentary
Language : Italian
Default : No
Forced : No

Text #28
ID : 32
Format : PGS
Muxing mode : zlib
Codec ID : S_HDMV/PGS
Codec ID/Info : Picture based subtitle format used on BDs/HD-DVDs
Duration : 2 h 10 min
Bit rate : 39.2 kb/s
Frame rate : 0.441 FPS
Count of elements : 3454
Stream size : 36.6 MiB (1%)
Title : Commentary
Language : Japanese
Default : No
Forced : No

Text #29
ID : 33
Format : PGS
Muxing mode : zlib
Codec ID : S_HDMV/PGS
Codec ID/Info : Picture based subtitle format used on BDs/HD-DVDs
Duration : 2 h 10 min
Bit rate : 41.5 kb/s
Frame rate : 0.501 FPS
Count of elements : 3922
Stream size : 38.7 MiB (1%)
Title : Commentary
Language : Korean
Default : No
Forced : No

Text #30
ID : 34
Format : PGS
Muxing mode : zlib
Codec ID : S_HDMV/PGS
Codec ID/Info : Picture based subtitle format used on BDs/HD-DVDs
Duration : 2 h 10 min
Bit rate : 53.5 kb/s
Frame rate : 0.444 FPS
Count of elements : 3477
Stream size : 49.9 MiB (1%)
Title : Castilian - Commentary
Language : Spanish
Default : No
Forced : No

Menu
00:00:00.000 : Chapter 1
00:05:45.303 : Chapter 2
00:16:20.354 : Chapter 3
00:24:39.019 : Chapter 4
00:36:09.167 : Chapter 5
00:45:11.042 : Chapter 6
00:59:56.927 : Chapter 7
01:06:27.901 : Chapter 8
01:14:46.315 : Chapter 9
01:20:21.358 : Chapter 10
01:29:10.595 : Chapter 11
01:35:30.642 : Chapter 12
01:47:12.676 : Chapter 13
01:54:14.431 : Chapter 14
01:59:50.517 : Chapter 15
02:03:42.582 : Chapter 16

Chinatown 1974 2160p UHD Blu-ray Remux HEVC DV TrueHD 5.1-HDT

Files