Backdraft 1991 UHD BluRay 1080p DDP 5 1 HDR10 x265-SM737

Two Chicago firefighter brothers who don't get along have to work together while a dangerous arsonist is on the loose.

Year: 1991
Duration: 137 min
Release date: Friday 24th May 1991
Genre: Action, Crime, Drama, Mystery, Thriller

Rating

6.6/10
(39516 Votes)

0

Your Rating

Stars:
Kurt Russell, William Baldwin, Robert De Niro, Donald Sutherland

https://www.imdb.com/title/tt0101393/

General
Unique ID : 17622633734798864799371891770542102904 (0xD41FEECCE7C9328C991761069299978)
Complete name : Backdraft.1991.UHD.BluRay.1080p.DDP.5.1.HDR10.x265-SM737.mkv
Format : Matroska
Format version : Version 4
File size : 4.00 GiB
Duration : 2 h 17 min
Overall bit rate : 4 171 kb/s
Frame rate : 23.976 FPS
Encoded date : 2024-07-04 08:24:01 UTC
Writing application : mkvmerge v85.0 ('Shame For You') 64-bit
Writing library : libebml v1.4.5 + libmatroska v1.7.1 / Lavf59.27.100

Video
ID : 1
Format : HEVC
Format/Info : High Efficiency Video Coding
Format profile : Main 10@L4@Main
Codec ID : V_MPEGH/ISO/HEVC
Duration : 2 h 17 min
Bit rate : 3 392 kb/s
Width : 1 920 pixels
Height : 1 080 pixels
Display aspect ratio : 16:9
Frame rate mode : Constant
Frame rate : 23.976 (24000/1001) FPS
Color space : YUV
Chroma subsampling : 4:2:0 (Type 2)
Bit depth : 10 bits
Bits/(Pixel*Frame) : 0.068
Stream size : 3.25 GiB (81%)
Title : 1080p
Writing library : x265 3.5+1-f0c1022b6:[Linux][GCC 12.2.1][64 bit] 10bit
Encoding settings : cpuid=1111039 / frame-threads=5 / no-wpp / no-pmode / no-pme / no-psnr / no-ssim / log-level=2 / input-csp=1 / input-res=1920x1080 / interlace=0 / total-frames=0 / level-idc=0 / high-tier=1 / uhd-bd=0 / ref=4 / no-allow-non-conformance / no-repeat-headers / annexb / no-aud / no-hrd / info / hash=0 / no-temporal-layers / open-gop / min-keyint=23 / keyint=250 / gop-lookahead=0 / bframes=4 / b-adapt=2 / b-pyramid / bframe-bias=0 / rc-lookahead=25 / lookahead-slices=0 / scenecut=40 / hist-scenecut=0 / radl=0 / no-splice / no-intra-refresh / ctu=64 / min-cu-size=8 / rect / no-amp / max-tu-size=32 / tu-inter-depth=1 / tu-intra-depth=1 / limit-tu=0 / rdoq-level=2 / dynamic-rd=0.00 / no-ssim-rd / signhide / no-tskip / nr-intra=0 / nr-inter=0 / no-constrained-intra / strong-intra-smoothing / max-merge=3 / limit-refs=3 / limit-modes / me=3 / subme=3 / merange=57 / temporal-mvp / no-frame-dup / no-hme / no-weightp / no-weightb / no-analyze-src-pics / no-deblock / no-sao / no-sao-non-deblock / rd=4 / selective-sao=0 / no-early-skip / rskip / no-fast-intra / no-tskip-fast / no-cu-lossless / no-b-intra / no-splitrd-skip / rdpenalty=0 / psy-rd=2.00 / psy-rdoq=1.00 / no-rd-refine / no-lossless / cbqpoffs=0 / crqpoffs=0 / rc=abr / bitrate=3500 / qcomp=0.60 / qpstep=4 / stats-write=0 / stats-read=0 / ipratio=1.40 / pbratio=1.30 / aq-mode=2 / aq-strength=1.00 / cutree / zone-count=0 / no-strict-cbr / qg-size=32 / no-rc-grain / qpmax=69 / qpmin=0 / no-const-vbv / sar=1 / overscan=0 / videoformat=5 / range=0 / colorprim=9 / transfer=16 / colormatrix=9 / chromaloc=1 / chromaloc-top=2 / chromaloc-bottom=2 / display-window=0 / cll=0,0 / min-luma=0 / max-luma=1023 / log2-max-poc-lsb=8 / vui-timing-info / vui-hrd-info / slices=1 / no-opt-qp-pps / no-opt-ref-list-length-pps / no-multi-pass-opt-rps / scenecut-bias=0.05 / hist-threshold=0.03 / no-opt-cu-delta-qp / no-aq-motion / no-hdr10 / no-hdr10-opt / no-dhdr10-opt / no-idr-recovery-sei / analysis-reuse-level=0 / analysis-save-reuse-level=0 / analysis-load-reuse-level=0 / scale-factor=0 / refine-intra=0 / refine-inter=0 / refine-mv=1 / refine-ctu-distortion=0 / no-limit-sao / ctu-info=0 / no-lowpass-dct / refine-analysis-type=0 / copy-pic=1 / max-ausize-factor=1.0 / no-dynamic-refine / no-single-sei / no-hevc-aq / no-svt / no-field / qp-adaptation-range=1.00 / scenecut-aware-qp=0conformance-window-offsets / right=0 / bottom=0 / decoder-max-rate=0 / no-vbv-live-multi-pass
Language : English
Default : Yes
Forced : No
Color range : Limited
Color primaries : BT.2020
Transfer characteristics : PQ
Matrix coefficients : BT.2020 non-constant

Audio
ID : 2
Format : E-AC-3
Format/Info : Enhanced AC-3
Commercial name : Dolby Digital Plus
Codec ID : A_EAC3
Duration : 2 h 17 min
Bit rate mode : Constant
Bit rate : 768 kb/s
Channel(s) : 6 channels
Channel layout : L R C LFE Ls Rs
Sampling rate : 48.0 kHz
Frame rate : 31.250 FPS (1536 SPF)
Bit depth : 32 bits
Compression mode : Lossy
Delay relative to video : -26 ms
Stream size : 754 MiB (18%)
Title : Surround 5.1
Writing library : Lavc59.37.100 eac3
Language : English
Service kind : Complete Main
Default : Yes
Forced : No

Text
ID : 3
Format : PGS
Muxing mode : zlib
Codec ID : S_HDMV/PGS
Codec ID/Info : Picture based subtitle format used on BDs/HD-DVDs
Duration : 2 h 9 min
Bit rate : 31.6 kb/s
Frame rate : 0.409 FPS
Count of elements : 3186
Stream size : 29.4 MiB (1%)
Title : English (SDH)
Language : English
Default : Yes
Forced : No

Menu
00:00:00.000 : Main Titles: Chicago 1971
00:05:49.682 : 20 Years Later
00:15:45.819 : The Brothers McCaffrey
00:18:24.978 : The First Day
00:39:05.259 : The Retirement Party
00:48:02.880 : The Probie's Life
00:51:56.279 : Time to Move On
00:59:25.728 : Pest Control
01:03:27.011 : A New Kind of Arson
01:14:42.394 : The Next Victim
01:24:17.552 : The Essence of Fire
01:38:27.818 : The Expert's Opinion
01:42:02.324 : The Path to a Killer
01:51:50.537 : Dancing with the Beast
02:03:18.724 : The Fireman's Farewell
02:07:10.247 : Back on the Line (End Titles)

Backdraft.1991.2160p.UHD.BluRay.Remux.HDR.HEVC.DTS-X-PmP

Files