Twister 1996 2160p BluRay x265 10bit Atmos TrueHD7 1-WiKi

TV weatherman Bill Harding is trying to get his tornado-hunter wife, Jo, to sign divorce papers so he can marry his girlfriend Melissa. But Mother Nature, in the form of a series of intense storms sweeping across Oklahoma, has other plans. Soon the three have joined the team of stormchasers as they attempt to insert a revolutionary measuring device into the very heart of several extremely violent tornados. Written by Martin H. Booda
Episode Summary: A couple on the point of divorce keep meeting each other because both are researchers who chase tornadoes.

Episode Title: Twister
Episode Air date: Wednesday 21st August 1996
Duration: 113 min
Genre: Action, Adventure, Thriller

Rating

6.5/10
(185989 Votes)

0

Your Rating

Stars: Helen Hunt, Bill Paxton, Cary Elwes, Jami Gertz

General
Unique ID : 102376674394537875308847283041546509800 (0x4D0507C0950FB40F2E1DA0E585C79DE8)
Complete name : Twister.1996.2160p.BluRay.x265.10bit.Atmos.TrueHD7.1-WiKi.mkv
Format : Matroska
Format version : Version 4
File size : 22.3 GiB
Duration : 1 h 53 min
Overall bit rate mode : Variable
Overall bit rate : 28.3 Mb/s
Frame rate : 23.976 FPS
Encoded date : 2024-07-07 03:28:51 UTC
Writing application : mkvmerge v78.0 ('Running') 64-bit
Writing library : libebml v1.4.4 + libmatroska v1.7.1

Video
ID : 1
Format : HEVC
Format/Info : High Efficiency Video Coding
Format profile : Main 10@L5@High
HDR format : SMPTE ST 2086, HDR10 compatible
Codec ID : V_MPEGH/ISO/HEVC
Duration : 1 h 53 min
Bit rate : 24.0 Mb/s
Width : 3 840 pixels
Height : 1 608 pixels
Display aspect ratio : 2.40:1
Frame rate mode : Constant
Frame rate : 23.976 (24000/1001) FPS
Color space : YUV
Chroma subsampling : 4:2:0 (Type 2)
Bit depth : 10 bits
Bits/(Pixel*Frame) : 0.162
Stream size : 18.9 GiB (85%)
Title : A @ WiKi
Language : English
Default : Yes
Forced : No
Color range : Limited
Color primaries : BT.2020
Transfer characteristics : PQ
Matrix coefficients : BT.2020 non-constant
Mastering display color primaries : Display P3
Mastering display luminance : min: 0.0001 cd/m2, max: 1000 cd/m2
Maximum Content Light Level : 995 cd/m2
Maximum Frame-Average Light Level : 693 cd/m2

Audio #1
ID : 2
Format : MLP FBA 16-ch
Format/Info : Meridian Lossless Packing FBA with 16-channel presentation
Commercial name : Dolby TrueHD with Dolby Atmos
Codec ID : A_TRUEHD
Duration : 1 h 53 min
Bit rate mode : Variable
Bit rate : 3 571 kb/s
Maximum bit rate : 5 736 kb/s
Channel(s) : 8 channels
Channel layout : L R C LFE Ls Rs Lb Rb
Sampling rate : 48.0 kHz
Frame rate : 1 200.000 FPS (40 SPF)
Compression mode : Lossless
Stream size : 2.82 GiB (13%)
Title : English
Language : English
Default : Yes
Forced : No
Number of dynamic objects : 11
Bed channel count : 1 channel
Bed channel configuration : LFE

Audio #2
ID : 3
Format : AC-3
Format/Info : Audio Coding 3
Commercial name : Dolby Digital
Codec ID : A_AC3
Duration : 1 h 53 min
Bit rate mode : Constant
Bit rate : 448 kb/s
Channel(s) : 6 channels
Channel layout : L R C LFE Ls Rs
Sampling rate : 48.0 kHz
Frame rate : 31.250 FPS (1536 SPF)
Compression mode : Lossy
Stream size : 362 MiB (2%)
Title : English
Language : English
Service kind : Complete Main
Default : No
Forced : No

Audio #3
ID : 4
Format : AAC LC SBR
Format/Info : Advanced Audio Codec Low Complexity with Spectral Band Replication
Commercial name : HE-AAC
Format settings : Explicit
Codec ID : A_AAC-2
Duration : 1 h 53 min
Bit rate : 77.0 kb/s
Channel(s) : 2 channels
Channel layout : L R
Sampling rate : 48.0 kHz
Frame rate : 23.438 FPS (2048 SPF)
Compression mode : Lossy
Delay relative to video : 31 ms
Stream size : 62.2 MiB (0%)
Title : Commentary
Language : English
Default : No
Forced : No

Text #1
ID : 5
Format : PGS
Codec ID : S_HDMV/PGS
Codec ID/Info : Picture based subtitle format used on BDs/HD-DVDs
Duration : 1 h 44 min
Bit rate : 36.7 kb/s
Frame rate : 0.473 FPS
Count of elements : 2970
Stream size : 27.5 MiB (0%)
Title : English
Language : English
Default : No
Forced : No

Text #2
ID : 6
Format : PGS
Codec ID : S_HDMV/PGS
Codec ID/Info : Picture based subtitle format used on BDs/HD-DVDs
Duration : 1 h 44 min
Bit rate : 24.5 kb/s
Frame rate : 0.375 FPS
Count of elements : 2355
Stream size : 18.3 MiB (0%)
Title : 简体
Language : Mandarin (Hans)
Default : No
Forced : No

Text #3
ID : 7
Format : PGS
Codec ID : S_HDMV/PGS
Codec ID/Info : Picture based subtitle format used on BDs/HD-DVDs
Duration : 1 h 44 min
Bit rate : 25.8 kb/s
Frame rate : 0.375 FPS
Count of elements : 2355
Stream size : 19.3 MiB (0%)
Title : 繁體
Language : Mandarin (Hant)
Default : No
Forced : No

Text #4
ID : 8
Format : PGS
Codec ID : S_HDMV/PGS
Codec ID/Info : Picture based subtitle format used on BDs/HD-DVDs
Duration : 1 h 45 min
Bit rate : 25.0 kb/s
Frame rate : 0.365 FPS
Count of elements : 2299
Stream size : 18.8 MiB (0%)
Title : 粤語
Language : Cantonese (Hant)
Default : No
Forced : No

Menu
00:00:00.000 : en:Chapter 01
00:04:45.660 : en:Chapter 02
00:05:41.967 : en:Chapter 03
00:12:46.391 : en:Chapter 04
00:15:46.904 : en:Chapter 05
00:18:53.716 : en:Chapter 06
00:21:08.642 : en:Chapter 07
00:26:42.267 : en:Chapter 08
00:29:02.074 : en:Chapter 09
00:31:43.652 : en:Chapter 10
00:33:24.753 : en:Chapter 11
00:35:55.987 : en:Chapter 12
00:41:33.866 : en:Chapter 13
00:45:08.289 : en:Chapter 14
00:49:33.429 : en:Chapter 15
00:53:07.351 : en:Chapter 16
00:56:36.560 : en:Chapter 17
00:59:05.625 : en:Chapter 18
01:02:11.895 : en:Chapter 19
01:05:14.702 : en:Chapter 20
01:11:28.242 : en:Chapter 21
01:15:11.966 : en:Chapter 22
01:18:14.148 : en:Chapter 23
01:22:44.668 : en:Chapter 24
01:24:32.818 : en:Chapter 25
01:27:52.392 : en:Chapter 26
01:30:08.528 : en:Chapter 27
01:31:18.598 : en:Chapter 28
01:34:44.304 : en:Chapter 29
01:36:13.893 : en:Chapter 30
01:38:49.423 : en:Chapter 31
01:41:07.895 : en:Chapter 32
01:43:27.701 : en:Chapter 33
01:45:36.580 : en:Chapter 34

Files