Chinatown 1974 UHD BluRay DolbyVisionMP4 2160p DDP5 1 HEVC-d3g

A private detective investigating an adultery case stumbles on to a scheme of murder that has something to do with water.

Year: 1974
Duration: 130 min
Release date: Thursday 20th June 1974
Genre: Crime, Drama, Mystery, Thriller

Rating

8.4/10
(106178 Votes)

0

Your Rating

Stars:
Jack Nicholson, Faye Dunaway, John Huston, Perry Lopez

Chinatown 1974 UHD BluRay DolbyVisionMP4 2160p DDP5.1 HEVC-d3g [/color]

IMDb: https://www.imdb.com/title/tt0071315/

Complete name : Chinatown 1974 UHD BluRay DolbyVisionMP4 2160p DDP5.1 HEVC-d3g.mp4
Format : MPEG-4
Format profile : Base Media
Codec ID : isom (isom/iso2/mp41)
File size : 64.9 GiB
Duration : 2 h 10 min
Overall bit rate mode : Variable
Overall bit rate : 71.2 Mb/s
Frame rate : 23.976 FPS
Movie name : Chinatown 1974 UHD BluRay DolbyVisionMP4 2160p DDP5.1 HEVC-d3g
Performer : Roman Polanski
Genre : Crime & Drama & Mystery & Thriller
Description : Private eye Jake Gittes lives off of the murky moral climate of sunbaked, pre-World War II Southern California. Hired by a beautiful socialite to investigate her husband's extra-marital affair, Gittes is swept into a maelstrom of double dealings and deadly deceits, uncovering a web of personal and political scandals that come crashing together.
Recorded date : 1974
Writing application : DVDFab

Video #1
ID : 1
Format : HEVC
Format/Info : High Efficiency Video Coding
Format profile : Main 10@L5.1@High
HDR format : SMPTE ST 2086, HDR10 compatible
Codec ID : hev1
Codec ID/Info : High Efficiency Video Coding
Duration : 2 h 10 min
Bit rate : 70.8 Mb/s
Width : 3 840 pixels
Height : 2 160 pixels
Display aspect ratio : 16:9
Frame rate mode : Constant
Frame rate : 23.976 (24000/1001) FPS
Color space : YUV
Chroma subsampling : 4:2:0 (Type 2)
Bit depth : 10 bits
Bits/(Pixel*Frame) : 0.356
Stream size : 64.6 GiB (99%)
Color range : Limited
Color primaries : BT.2020
Transfer characteristics : PQ
Matrix coefficients : BT.2020 non-constant
Mastering display color primaries : Display P3
Mastering display luminance : min: 0.0050 cd/m2, max: 4000 cd/m2
Maximum Content Light Level : 1269 cd/m2
Maximum Frame-Average Light Level : 52 cd/m2
Codec configuration box : hvcC

Video #2
ID : 2
Format : JPEG
Codec ID : mp4v-6C
Width : 500 pixels
Height : 655 pixels
Display aspect ratio : 0.763
Color space : YUV
Chroma subsampling : 4:2:0
Bit depth : 8 bits
Compression mode : Lossy
Stream size : 42.1 KiB (0%)
Default : No

Audio
ID : 3
Format : AAC LC
Format/Info : Advanced Audio Codec Low Complexity
Codec ID : mp4a-40-2
Duration : 2 h 10 min
Bit rate mode : Constant
Bit rate : 394 kb/s
Channel(s) : 6 channels
Channel layout : L R C Cb Lb Rb
Sampling rate : 48.0 kHz
Frame rate : 46.875 FPS (1024 SPF)
Compression mode : Lossy
Stream size : 368 MiB (0%)
Language : English
Default : Yes
Alternate group : 1

Text #1
ID : 4
Format : Timed Text
Muxing mode : sbtl
Codec ID : tx3g
Duration : 2 h 10 min
Bit rate mode : Variable
Bit rate : 57 b/s
Frame rate : 0.374 FPS
Stream size : 54.8 KiB (0%)
Language : English
Default : Yes
Forced : No
Alternate group : 3
Count of events : 1462

Text #2
ID : 5
Format : Timed Text
Muxing mode : sbtl
Codec ID : tx3g
Duration : 2 h 10 min
Bit rate mode : Variable
Bit rate : 63 b/s
Frame rate : 0.415 FPS
Stream size : 60.4 KiB (0%)
Language : English
Default : No
Forced : No
Alternate group : 3
Count of events : 1625

Text #3
ID : 6
Format : Timed Text
Muxing mode : sbtl
Codec ID : tx3g
Duration : 2 h 10 min
Bit rate mode : Variable
Bit rate : 98 b/s
Frame rate : 0.501 FPS
Stream size : 93.8 KiB (0%)
Language : English
Default : No
Forced : No
Alternate group : 3
Count of events : 1961

Source: 4K UHD BluRay ISO

Files