The Bikeriders 2023 2160p AMZN WEB-DL DDP5 1 Atmos HDR H 265-BYNDR

After a chance encounter, headstrong Kathy is drawn to Benny, member of Midwestern motorcycle club the Vandals. As the club transforms into a dangerous underworld of violence, Benny must choose between Kathy and his loyalty to the club.

Year: 2023
Duration: 116 min
Release date: Wednesday 19th June 2024
Genre: Crime, Drama

Rating

7.1/10
(14535 Votes)

0

Your Rating

Stars:
Jodie Comer, Austin Butler, Tom Hardy, Michael Shannon, Mike Faist, Boyd Holbrook, Norman Reedus, Damon Herriman

General
Unique ID : 285593528042642306789194018292994647262 (0xD6DB5010E96526736C67B8DCDE53A4DE)
Complete name : The.Bikeriders.2023.2160p.AMZN.WEB-DL.DDP5.1.Atmos.HDR.H.265-BYNDR.mkv
Format : Matroska
Format version : Version 4
File size : 12.5 GiB
Duration : 1 h 56 min
Overall bit rate : 15.4 Mb/s
Frame rate : 23.976 FPS
Writing application : mkvmerge v83.0 ('Circle Of Friends') 64-bit
Writing library : libebml v1.4.5 + libmatroska v1.7.1

Video
ID : 1
Format : HEVC
Format/Info : High Efficiency Video Coding
Format profile : Main 10@L5@Main
HDR format : SMPTE ST 2094 App 4, Version 1, HDR10+ Profile B compatible
Codec ID : V_MPEGH/ISO/HEVC
Duration : 1 h 56 min
Bit rate : 14.6 Mb/s
Width : 3 840 pixels
Height : 1 600 pixels
Display aspect ratio : 2.40:1
Frame rate mode : Constant
Frame rate : 23.976 (24000/1001) FPS
Color space : YUV
Chroma subsampling : 4:2:0
Bit depth : 10 bits
Bits/(Pixel*Frame) : 0.099
Stream size : 11.9 GiB (95%)
Default : Yes
Forced : No
Color range : Limited
Color primaries : BT.2020
Transfer characteristics : PQ
Matrix coefficients : BT.2020 non-constant
Mastering display color primar : Display P3
Mastering display luminance : min: 0.0050 cd/m2, max: 1000 cd/m2
Maximum Content Light Level : 514 cd/m2
Maximum Frame-Average Light Le : 74 cd/m2

Audio
ID : 2
Format : E-AC-3 JOC
Format/Info : Enhanced AC-3 with Joint Object Coding
Commercial name : Dolby Digital Plus with Dolby Atmos
Codec ID : A_EAC3
Duration : 1 h 56 min
Bit rate mode : Constant
Bit rate : 768 kb/s
Channel(s) : 6 channels
Channel layout : L R C LFE Ls Rs
Sampling rate : 48.0 kHz
Frame rate : 31.250 FPS (1536 SPF)
Compression mode : Lossy
Delay relative to video : 16 ms
Stream size : 639 MiB (5%)
Language : English
Service kind : Complete Main
Default : Yes
Forced : No
Complexity index : 16
Number of dynamic objects : 15
Bed channel count : 1 channel
Bed channel configuration : LFE
Dialog Normalization : -28 dB
compr : -0.28 dB
dialnorm_Average : -28 dB
dialnorm_Minimum : -28 dB
dialnorm_Maximum : -28 dB

Text #1
ID : 3
Format : UTF-8
Codec ID : S_TEXT/UTF8
Codec ID/Info : UTF-8 Plain Text
Duration : 1 h 54 min
Bit rate : 66 b/s
Frame rate : 0.275 FPS
Count of elements : 1894
Stream size : 56.3 KiB (0%)
Language : English
Default : No
Forced : No

Text #2
ID : 4
Format : UTF-8
Codec ID : S_TEXT/UTF8
Codec ID/Info : UTF-8 Plain Text
Duration : 1 h 55 min
Bit rate : 76 b/s
Frame rate : 0.312 FPS
Count of elements : 2165
Stream size : 64.9 KiB (0%)
Title : SDH
Language : English
Default : No
Forced : No

Text #3
ID : 5
Format : UTF-8
Codec ID : S_TEXT/UTF8
Codec ID/Info : UTF-8 Plain Text
Duration : 1 h 49 min
Bit rate : 50 b/s
Frame rate : 0.228 FPS
Count of elements : 1503
Stream size : 40.5 KiB (0%)
Title : Latin American
Language : Spanish (Latin America)
Default : No
Forced : No

Text #4
ID : 6
Format : UTF-8
Codec ID : S_TEXT/UTF8
Codec ID/Info : UTF-8 Plain Text
Duration : 1 h 49 min
Bit rate : 65 b/s
Frame rate : 0.220 FPS
Count of elements : 1446
Stream size : 52.6 KiB (0%)
Title : Canadian
Language : French (CA)
Default : No
Forced : No

Menu
00:00:00.016 : en:Chapter 01
00:10:36.736 : en:Chapter 02
00:17:59.595 : en:Chapter 03
00:25:19.660 : en:Chapter 04
00:32:05.107 : en:Chapter 05
00:39:58.414 : en:Chapter 06
00:47:41.252 : en:Chapter 07
00:54:21.402 : en:Chapter 08
00:58:56.218 : en:Chapter 09
01:06:24.542 : en:Chapter 10
01:16:29.480 : en:Chapter 11
01:23:41.620 : en:Chapter 12
01:28:52.598 : en:Chapter 13
01:35:55.646 : en:Chapter 14
01:42:44.805 : en:Chapter 15
01:48:55.176 : en:Chapter 16

Files