Civil War 2024 UHD BluRay DolbyVisionMP4 2160p DDP5 1 HEVC-d3g

A journey across a dystopian future America, following a team of military-embedded journalists as they race against time to reach DC before rebel factions descend upon the White House.

Year: 2024
Duration: 109 min
Release date: Wednesday 17th April 2024
Genre: Action, Thriller

Rating

7.6/10
(37022 Votes)

0

Your Rating

Stars:
Nick Offerman, Kirsten Dunst, Wagner Moura, Jefferson White, Nelson Lee, Evan Lai, Cailee Spaeny, Stephen McKinley Henderson

Civil War 2024 UHD BluRay DolbyVisionMP4 2160p DDP5.1 HEVC-d3g [/color]

IMDb: https://www.imdb.com/title/tt17279496/

Complete name : Civil War 2024 UHD BluRay DolbyVisionMP4 2160p DDP5.1 HEVC-d3g.mp4
Format : MPEG-4
Format profile : Base Media / Version 2
Codec ID : mp42 (mp42/isom/hev1/dby1)
File size : 61.0 GiB
Duration : 1 h 48 min
Overall bit rate mode : Variable
Overall bit rate : 80.4 Mb/s
Frame rate : 23.976 FPS
Movie name : CIVIL_WAR_-_ULTRA_HD.Title1
Encoded date : 2024-07-08 21:00:19 UTC
Tagged date : 2024-07-08 21:08:55 UTC
Writing application : DVDFab 12.1.1.5
Cover : Yes

Video #1
ID : 1
Format : HEVC
Format/Info : High Efficiency Video Coding
Format profile : Main 10@L5.1@High
HDR format : SMPTE ST 2086, HDR10 compatible
Codec ID : hev1
Codec ID/Info : High Efficiency Video Coding
Duration : 1 h 48 min
Source duration : 1 h 48 min
Bit rate : 72.0 Mb/s
Width : 3 840 pixels
Height : 2 160 pixels
Display aspect ratio : 16:9
Frame rate mode : Constant
Frame rate : 23.976 (24000/1001) FPS
Color space : YUV
Chroma subsampling : 4:2:0 (Type 2)
Bit depth : 10 bits
Bits/(Pixel*Frame) : 0.362
Stream size : 54.7 GiB (90%)
Source stream size : 54.7 GiB (90%)
Encoded date : 2024-07-08 21:00:19 UTC
Tagged date : 2024-07-08 21:08:51 UTC
Color range : Limited
Color primaries : BT.2020
Transfer characteristics : PQ
Matrix coefficients : BT.2020 non-constant
Mastering display color primaries : Display P3
Mastering display luminance : min: 0.0001 cd/m2, max: 1000 cd/m2
Codec configuration box : hvcC

Video #2
ID : 2
Format : HEVC
Format/Info : High Efficiency Video Coding
Format profile : Main 10@L5.1@High
HDR format : Dolby Vision, Version 1.0, Profile 7.6, dvhe.07.06, EL+RPU, no metadata compression, Blu-ray compatible / SMPTE ST 2086, Version HDR10, HDR10 compatible
Codec ID : dvhe
Codec ID/Info : High Efficiency Video Coding with Dolby Vision
Duration : 1 h 48 min
Source duration : 1 h 48 min
Bit rate : 7 701 kb/s
Width : 1 920 pixels
Height : 1 080 pixels
Display aspect ratio : 16:9
Frame rate mode : Constant
Frame rate : 23.976 (24000/1001) FPS
Color space : YUV
Chroma subsampling : 4:2:0 (Type 2)
Bit depth : 10 bits
Bits/(Pixel*Frame) : 0.155
Stream size : 5.85 GiB (10%)
Source stream size : 5.85 GiB (10%)
Encoded date : 2024-07-08 21:00:19 UTC
Tagged date : 2024-07-08 21:08:51 UTC
Color range : Limited
Color primaries : BT.2020
Transfer characteristics : PQ
Matrix coefficients : BT.2020 non-constant
Mastering display color primaries : Display P3
Mastering display luminance : min: 0.0001 cd/m2, max: 1000 cd/m2
Codec configuration box : hvcC+dvcC

Audio
ID : 3
Format : E-AC-3
Format/Info : Enhanced AC-3
Commercial name : Dolby Digital Plus
Codec ID : ac-3
Duration : 1 h 48 min
Bit rate mode : Constant
Bit rate : 640 kb/s
Channel(s) : 6 channels
Channel layout : L R C LFE Ls Rs
Sampling rate : 48.0 kHz
Frame rate : 31.250 FPS (1536 SPF)
Compression mode : Lossy
Stream size : 498 MiB (1%)
Title : English (eac3 5.1)
Language : English
Service kind : Complete Main
Default : Yes
Alternate group : 1
Encoded date : 2024-07-08 21:00:19 UTC
Tagged date : 2024-07-08 21:08:52 UTC
Dialog Normalization : -31 dB
dialnorm_Average : -31 dB
dialnorm_Minimum : -31 dB
dialnorm_Maximum : -31 dB

Text
ID : 4
Format : VobSub
Codec ID : mp4s-E0
Codec ID/Info : The same subtitle format used on DVDs
Duration : 1 h 48 min
Bit rate mode : Variable
Bit rate : 7 352 b/s
Maximum bit rate : 4 249 Mb/s
Frame rate : 0.370 FPS
Stream size : 5.69 MiB (0%)
Language : English
Default : Yes
Forced : No
Alternate group : 2
Encoded date : 2024-07-08 21:00:19 UTC
Tagged date : 2024-07-08 21:08:51 UTC

Source: 4K UHD BluRay ISO

Files