[SubsPlease] Ore wa Subete wo Parry suru - 01 (1080p) [408FEDD1]

The Kingdom of Clays faces a dire crisis: an assassination attempt has just been made on its own Princess Lynneburg, and its neighboring countries eye the aftermath like starving vultures, plotting the Kingdom&s downfall. The ensuing conflict will shape the face of the continent for centuries to come...but Noor doesn&t have a clue about any of that! Having freshly arrived at the royal capital after over a decade of rigorous, isolated training at his mountain home, he&s dead set on achieving his childhood dream of becoming an adventurer, even if the only skills he possesses are useless ones. Sure, he can [Parry] thousands of swords in the span of a single breath, but everybody knows you need more than that if you want to be an adventurer! Our hero&s road to making his dream come true will be long(?) and arduous(?)—but if there&s one thing Noor&s not afraid of, it&s some good ol& fashioned hard work!

Release date: Friday 5th July 2024
Genre: Action, Adventure, Fantasy

General
Unique ID : 0 (0x0)
Complete name : [SubsPlease] Ore wa Subete wo Parry suru - 01 (1080p) [408FEDD1].mkv
Format : Matroska
Format version : Version 4
File size : 976 MiB
Duration : 25 min 11 s
Overall bit rate : 5 415 kb/s
Frame rate : 24.000 FPS
Encoded date : 1970-01-01 00:00:00 UTC
Writing application : no_variable_data
Writing library : no_variable_data
Attachments : Roboto-Medium.ttf

Video
ID : 1
Format : AVC
Format/Info : Advanced Video Codec: Format profile : High@L4
Format settings : CABAC / 4 Ref Frames
Format settings, CABAC : Yes
Format settings, Reference frames : 4 frames
Codec ID : V_MPEG4/ISO/AVC
Duration : 25 min 11 s
Bit rate : 5 372 kb/s
Width : 1 920 pixels
Height : 1 080 pixels
Display aspect ratio : 16:9
Frame rate mode : Constant
Frame rate : 24.000 FPS
Color space : YUV
Chroma subsampling : 4:2:0
Bit depth : 8 bits
Scan type : Progressive
Bits/(Pixel*Frame) : 0.108
Stream size : 952 MiB (98%)
Writing library : x264 core 164 r3153 5f84d40
Encoding settings : cabac=1 / ref=2 / deblock=1:0:0 / analyse=0x3:0x113 / me=hex / subme=6 / psy=1 / psy_rd=1.00:0.00 / mixed_ref=1 / me_range=16 / chroma_me=1 / trellis=1 / 8x8dct=1 / cqm=0 / deadzone=21,11 / fast_pskip=1 / chroma_qp_offset=-2 / threads=24 / lookahead_threads=4 / sliced_threads=0 / nr=0 / decimate=1 / interlaced=0 / bluray_compat=0 / constrained_intra=0 / bframes=2 / b_pyramid=2 / b_adapt=1 / b_bias=0 / direct=1 / weightb=1 / open_gop=0 / weightp=1 / keyint=48 / keyint_min=25 / scenecut=0 / intra_refresh=0 / rc_lookahead=30 / rc=2pass / mbtree=1 / bitrate=5372 / ratetol=1.0 / qcomp=0.60 / qpmin=0 / qpmax=69 / qpstep=4 / cplxblur=20.0 / qblur=0.5 / vbv_maxrate=5372 / vbv_bufsize=10744 / nal_hrd=none / filler=0 / ip_ratio=1.40 / aq=1:1.00
Default : Yes
Forced : No

Audio
ID : 2
Format : AAC LC
Format/Info : Advanced Audio Codec Low Complexity
Codec ID : A_AAC-2
Duration : 25 min 11 s
Bit rate : 128 kb/s
Channel(s) : 2 channels
Channel layout : L R
Sampling rate : 48.0 kHz
Frame rate : 46.875 FPS (1024 SPF)
Compression mode : Lossy
Stream size : 23.1 MiB (2%)
Title : Japanese
Language : Japanese
Default : Yes
Forced : No

Text
ID : 3
Format : ASS
Codec ID : S_TEXT/ASS
Codec ID/Info : Advanced Sub Station Alpha
Duration : 23 min 22 s
Bit rate : 71 b/s
Frame rate : 0.181 FPS
Count of elements : 254
Compression mode : Lossless
Stream size : 12.2 KiB (0%)
Title : English
Language : English
Default : Yes
Forced : Yes

Files