[SubsPlease] Chiikawa - 99 (1080p) [E4596CED]

The sometimes happy, sometimes sad, and a tad stressful daily life of "e;some sort of small, cute creature"e; known as Chiikawa. Chiikawa enjoys delicious food with bees and rabbits, toils hard every day for the rewards of work, and still maintains a smile.

Release date: Monday 4th April 2022
Genre: Comedy, Slice of Life
Duration: 2 min

General
Unique ID : 0 (0x0)
Complete name : [SubsPlease] Chiikawa - 99 (1080p) [E4596CED].mkv
Format : Matroska
Format version : Version 4
File size : 76.5 MiB
Duration : 2 min 16 s
Overall bit rate : 4 709 kb/s
Frame rate : 24.000 FPS
Encoded date : 1970-01-01 00:00:00 UTC
Writing application : no_variable_data
Writing library : no_variable_data
Attachments : Roboto-Medium.ttf

Video
ID : 1
Format : AVC
Format/Info : Advanced Video Codec: Format profile : High@L4
Format settings : CABAC / 4 Ref Frames
Format settings, CABAC : Yes
Format settings, Reference frames : 4 frames
Codec ID : V_MPEG4/ISO/AVC
Duration : 2 min 16 s
Bit rate : 4 602 kb/s
Nominal bit rate : 5 372 kb/s
Width : 1 920 pixels
Height : 1 080 pixels
Display aspect ratio : 16:9
Frame rate mode : Constant
Frame rate : 24.000 FPS
Color space : YUV
Chroma subsampling : 4:2:0
Bit depth : 8 bits
Scan type : Progressive
Bits/(Pixel*Frame) : 0.092
Stream size : 74.7 MiB (98%)
Writing library : x264 core 164 r3153 5f84d40
Encoding settings : cabac=1 / ref=2 / deblock=1:0:0 / analyse=0x3:0x113 / me=hex / subme=6 / psy=1 / psy_rd=1.00:0.00 / mixed_ref=1 / me_range=16 / chroma_me=1 / trellis=1 / 8x8dct=1 / cqm=0 / deadzone=21,11 / fast_pskip=1 / chroma_qp_offset=-2 / threads=24 / lookahead_threads=4 / sliced_threads=0 / nr=0 / decimate=1 / interlaced=0 / bluray_compat=0 / constrained_intra=0 / bframes=2 / b_pyramid=2 / b_adapt=1 / b_bias=0 / direct=1 / weightb=1 / open_gop=0 / weightp=1 / keyint=48 / keyint_min=25 / scenecut=0 / intra_refresh=0 / rc_lookahead=30 / rc=2pass / mbtree=1 / bitrate=5372 / ratetol=1.0 / qcomp=0.60 / qpmin=0 / qpmax=69 / qpstep=4 / cplxblur=20.0 / qblur=0.5 / vbv_maxrate=5372 / vbv_bufsize=10744 / nal_hrd=none / filler=0 / ip_ratio=1.40 / aq=1:1.00
Default : Yes
Forced : No

Audio
ID : 2
Format : AAC LC
Format/Info : Advanced Audio Codec Low Complexity
Codec ID : A_AAC-2
Duration : 2 min 16 s
Bit rate : 83.6 kb/s
Channel(s) : 2 channels
Channel layout : L R
Sampling rate : 48.0 kHz
Frame rate : 46.875 FPS (1024 SPF)
Compression mode : Lossy
Stream size : 1.36 MiB (2%)
Title : Japanese
Language : Japanese
Default : Yes
Forced : No

Text
ID : 3
Format : ASS
Codec ID : S_TEXT/ASS
Codec ID/Info : Advanced Sub Station Alpha
Duration : 1 min 25 s
Bit rate : 78 b/s
Frame rate : 0.268 FPS
Count of elements : 23
Compression mode : Lossless
Stream size : 837 Bytes (0%)
Title : English
Language : English
Default : Yes
Forced : Yes

Files