The Boy and the Heron (2023) (2160p HDR10 DV Hybrid BDRip x265 10bit TrueHD 7 1 Atmos + AC3 5 1 DUAL - Goki)[TAoE]

In the wake of his mother's death and his father's remarriage, a headstrong boy named Mahito ventures into a dreamlike world shared by both the living and the dead.

Year: 2023
Duration: 124 min
Release date: Wednesday 1st November 2023
Genre: Animation, Adventure, Drama, Family, Fantasy

Rating

7.6/10
(48210 Votes)

0

Your Rating

Stars:
Soma Santoki, Masaki Suda, Kô Shibasaki, Aimyon, Yoshino Kimura, Takuya Kimura, Keiko Takeshita, Jun Fubuki

Note: Screenshots have been SDR tonemapped, it should give you a general idea of what a title will look like,
though it's not representative of the true quality.

This is a Hybrid Dolby Vision Profile 8.1 MKV release with HDR10 fallback,
If your hardware does not support DV, this will play as normal HDR10.

Encode Size 11.91 GB (CRF 16)
Source Size 79.1 GB

Encode Media Information

General
Unique ID : 321162895603243097681365381159214771223 (0xF19DB948C89AB44235A75E7C2941EC17)
Complete name : The Boy and the Heron (2023) (2160p HDR10 DV Hybrid BDRip x265 10bit TrueHD 7.1 Atmos + AC3 5.1 DUAL - Goki)[TAoE].mkv
Format : Matroska
Format version : Version 4
File size : 11.9 GiB
Duration : 2 h 3 min
Overall bit rate mode : Variable
Overall bit rate : 13.8 Mb/s
Encoded date : UTC 2024-07-06 02:12:02
Writing application : mkvmerge v73.0.0 ('25 or 6 to 4') 64-bit
Writing library : libebml v1.4.4 + libmatroska v1.7.1 / Lavf60.16.100
IMDB : tt6587046
TMDB : movie/508883

Video
ID : 1
Format : HEVC
Format/Info : High Efficiency Video Coding
Format profile : Main 10@L5@Main
HDR format : Dolby Vision, Version 1.0, dvhe.08.06, BL+RPU, HDR10 compatible / SMPTE ST 2086, HDR10 compatible
Codec ID : V_MPEGH/ISO/HEVC
Duration : 2 h 3 min
Bit rate : 3 851 kb/s
Width : 3 840 pixels
Height : 2 160 pixels
Display aspect ratio : 16:9
Frame rate mode : Constant
Frame rate : 23.976 (24000/1001) FPS
Color space : YUV
Chroma subsampling : 4:2:0 (Type 2)
Bit depth : 10 bits
Bits/(Pixel*Frame) : 0.019
Stream size : 3.33 GiB (28%)
Title : Encoded by Goki for TAoE using ChikaraDX V27(DVEI V4.27) 1
Writing library : x265 3.5+1-f0c1022b6:[Linux][GCC 8.3.0][64 bit] 10bit
Encoding settings : cpuid=1111039 / frame-threads=3 / wpp / no-pmode / no-pme / no-psnr / no-ssim / log-level=2 / input-csp=1 / input-res=3840x2160 / interlace=0 / total-frames=0 / level-idc=0 / high-tier=1 / uhd-bd=0 / ref=4 / no-allow-non-conformance / repeat-headers / annexb / no-aud / no-hrd / info / hash=0 / no-temporal-layers / open-gop / min-keyint=23 / keyint=250 / gop-lookahead=0 / bframes=8 / b-adapt=2 / b-pyramid / bframe-bias=0 / rc-lookahead=80 / lookahead-slices=4 / scenecut=40 / hist-scenecut=0 / radl=0 / no-splice / no-intra-refresh / ctu=64 / min-cu-size=8 / no-rect / no-amp / max-tu-size=32 / tu-inter-depth=1 / tu-intra-depth=1 / limit-tu=0 / rdoq-level=2 / dynamic-rd=0.00 / no-ssim-rd / signhide / no-tskip / nr-intra=0 / nr-inter=0 / no-constrained-intra / no-strong-intra-smoothing / max-merge=3 / limit-refs=3 / limit-modes / me=3 / subme=5 / merange=57 / temporal-mvp / no-frame-dup / no-hme / weightp / no-weightb / no-analyze-src-pics / deblock=0:0 / sao / no-sao-non-deblock / rd=4 / selective-sao=4 / no-early-skip / rskip / no-fast-intra / no-tskip-fast / no-cu-lossless / no-b-intra / no-splitrd-skip / rdpenalty=0 / psy-rd=1.30 / psy-rdoq=2.00 / no-rd-refine / no-lossless / cbqpoffs=0 / crqpoffs=0 / rc=crf / crf=16.0 / qcomp=0.60 / qpstep=4 / stats-write=0 / stats-read=0 / ipratio=1.40 / pbratio=1.30 / aq-mode=4 / aq-strength=1.10 / cutree / zone-count=0 / no-strict-cbr / qg-size=32 / no-rc-grain / qpmax=69 / qpmin=0 / no-const-vbv / sar=1 / overscan=0 / videoformat=5 / range=0 / colorprim=9 / transfer=16 / colormatrix=9 / chromaloc=1 / chromaloc-top=2 / chromaloc-bottom=2 / display-window=0 / master-display=G(8500,39850)B(6550,2300)R(35400,14600)WP(15635,16450)L(10000000,001) / cll=991,299 / min-luma=0 / max-luma=1023 / log2-max-poc-lsb=8 / vui-timing-info / vui-hrd-info / slices=1 / no-opt-qp-pps / no-opt-ref-list-length-pps / no-multi-pass-opt-rps / scenecut-bias=0.05 / hist-threshold=0.03 / no-opt-cu-delta-qp / no-aq-motion / hdr10 / hdr10-opt / no-dhdr10-opt / no-idr-recovery-sei / analysis-reuse-level=0 / analysis-save-reuse-level=0 / analysis-load-reuse-level=0 / scale-factor=0 / refine-intra=0 / refine-inter=0 / refine-mv=1 / refine-ctu-distortion=0 / no-limit-sao / ctu-info=0 / no-lowpass-dct / refine-analysis-type=0 / copy-pic=1 / max-ausize-factor=1.0 / no-dynamic-refine / no-single-sei / no-hevc-aq / no-svt / no-field / qp-adaptation-range=1.00 / scenecut-aware-qp=0conformance-window-offsets / right=0 / bottom=0 / decoder-max-rate=0 / no-vbv-live-multi-pass
Language : Japanese
Default : Yes
Forced : No
Color range : Limited
Color primaries : BT.2020
Transfer characteristics : PQ
Matrix coefficients : BT.2020 non-constant
Mastering display color primaries : BT.2020
Mastering display luminance : min: 0.0001 cd/m2, max: 1000 cd/m2
Maximum Content Light Level : 991 cd/m2
Maximum Frame-Average Light Level : 299 cd/m2

Audio #1
ID : 2
Format : MLP FBA 16-ch
Format/Info : Meridian Lossless Packing FBA with 16-channel presentation
Commercial name : Dolby TrueHD with Dolby Atmos
Codec ID : A_TRUEHD
Duration : 2 h 3 min
Bit rate mode : Variable
Bit rate : 4 156 kb/s
Maximum bit rate : 6 408 kb/s
Channel(s) : 8 channels
Channel layout : L R C LFE Ls Rs Lb Rb
Sampling rate : 48.0 kHz
Frame rate : 1 200.000 FPS (40 SPF)
Bit depth : 24 bits
Compression mode : Lossless
Stream size : 3.60 GiB (30%)
Language : Japanese
Default : No
Forced : No
SOURCE : Shout Factory USA UHD Blu-ray (2024)
Number of dynamic objects : 11
Bed channel count : 1 channel
Bed channel configuration : LFE

Audio #2
ID : 3
Format : AC-3
Format/Info : Audio Coding 3
Commercial name : Dolby Digital
Codec ID : A_AC3
Duration : 2 h 3 min
Bit rate mode : Constant
Bit rate : 640 kb/s
Channel(s) : 6 channels
Channel layout : L R C LFE Ls Rs
Sampling rate : 48.0 kHz
Frame rate : 31.250 FPS (1536 SPF)
Bit depth : 32 bits
Compression mode : Lossy
Stream size : 567 MiB (5%)
Title : Compatibility Track
Language : Japanese
Service kind : Complete Main
Default : No
Forced : No
SOURCE : Shout Factory USA UHD Blu-ray (2024)

Audio #3
ID : 4
Format : MLP FBA 16-ch
Format/Info : Meridian Lossless Packing FBA with 16-channel presentation
Commercial name : Dolby TrueHD with Dolby Atmos
Codec ID : A_TRUEHD
Duration : 2 h 3 min
Bit rate mode : Variable
Bit rate : 4 256 kb/s
Maximum bit rate : 6 519 kb/s
Channel(s) : 8 channels
Channel layout : L R C LFE Ls Rs Lb Rb
Sampling rate : 48.0 kHz
Frame rate : 1 200.000 FPS (40 SPF)
Bit depth : 24 bits
Compression mode : Lossless
Stream size : 3.68 GiB (31%)
Title : English Dub / Dolby Atmos
Language : English
Default : Yes
Forced : No
SOURCE : Shout Factory USA UHD Blu-ray (2024)
Number of dynamic objects : 11
Bed channel count : 1 channel
Bed channel configuration : LFE

Audio #4
ID : 5
Format : AC-3
Format/Info : Audio Coding 3
Commercial name : Dolby Digital
Codec ID : A_AC3
Duration : 2 h 3 min
Bit rate mode : Constant
Bit rate : 640 kb/s
Channel(s) : 6 channels
Channel layout : L R C LFE Ls Rs
Sampling rate : 48.0 kHz
Frame rate : 31.250 FPS (1536 SPF)
Bit depth : 32 bits
Compression mode : Lossy
Stream size : 567 MiB (5%)
Title : English Dub / Compatibility Track
Language : English
Service kind : Complete Main
Default : No
Forced : No
SOURCE : Shout Factory USA UHD Blu-ray (2024)

Text #1
ID : 6
Format : UTF-8
Codec ID : S_TEXT/UTF8
Codec ID/Info : UTF-8 Plain Text
Duration : 2 h 3 min
Bit rate : 24 b/s
Frame rate : 0.113 FPS
Count of elements : 838
Stream size : 22.2 KiB (0%)
Language : English
Default : No
Forced : No
SOURCE : Shout Factory USA UHD Blu-ray (2024)

Text #2
ID : 7
Format : UTF-8
Codec ID : S_TEXT/UTF8
Codec ID/Info : UTF-8 Plain Text
Duration : 2 h 3 min
Bit rate : 30 b/s
Frame rate : 0.163 FPS
Count of elements : 1210
Stream size : 27.8 KiB (0%)
Title : SDH
Language : English
Default : No
Forced : No
SOURCE : Shout Factory USA UHD Blu-ray (2024)

Text #3
ID : 8
Format : PGS
Muxing mode : zlib
Codec ID : S_HDMV/PGS
Codec ID/Info : Picture based subtitle format used on BDs/HD-DVDs
Duration : 2 h 3 min
Bit rate : 12.7 kb/s
Frame rate : 0.227 FPS
Count of elements : 1676
Stream size : 11.2 MiB (0%)
Title : PGS
Language : English
Default : No
Forced : No
SOURCE : Shout Factory USA UHD Blu-ray (2024)

Text #4
ID : 9
Format : PGS
Muxing mode : zlib
Codec ID : S_HDMV/PGS
Codec ID/Info : Picture based subtitle format used on BDs/HD-DVDs
Duration : 2 h 3 min
Bit rate : 16.2 kb/s
Frame rate : 0.326 FPS
Count of elements : 2420
Stream size : 14.3 MiB (0%)
Title : SDH / PGS
Language : English
Default : No
Forced : No
SOURCE : Shout Factory USA UHD Blu-ray (2024)

Text #5
ID : 10
Format : UTF-8
Codec ID : S_TEXT/UTF8
Codec ID/Info : UTF-8 Plain Text
Duration : 2 h 1 min
Bit rate : 2 b/s
Frame rate : 0.005 FPS
Count of elements : 39
Stream size : 1.82 KiB (0%)
Title : For signs/writing and end credits song on English Dub
Language : English
Default : No
Forced : No
SOURCE : Shout Factory USA UHD Blu-ray (2024)

Text #6
ID : 11
Format : PGS
Muxing mode : zlib
Codec ID : S_HDMV/PGS
Codec ID/Info : Picture based subtitle format used on BDs/HD-DVDs
Duration : 2 h 3 min
Bit rate : 909 b/s
Frame rate : 0.011 FPS
Count of elements : 78
Stream size : 823 KiB (0%)
Title : For signs/writing and end credits song on English Dub / PGS
Language : English
Default : Yes
Forced : Yes
SOURCE : Shout Factory USA UHD Blu-ray (2024)

Text #7
ID : 12
Format : UTF-8
Codec ID : S_TEXT/UTF8
Codec ID/Info : UTF-8 Plain Text
Duration : 2 h 2 min
Bit rate : 34 b/s
Frame rate : 0.147 FPS
Count of elements : 1087
Stream size : 31.0 KiB (0%)
Title : For English Dub
Language : English
Default : No
Forced : No
SOURCE : Shout Factory USA UHD Blu-ray (2024)

Text #8
ID : 13
Format : UTF-8
Codec ID : S_TEXT/UTF8
Codec ID/Info : UTF-8 Plain Text
Duration : 2 h 3 min
Bit rate : 41 b/s
Frame rate : 0.201 FPS
Count of elements : 1489
Stream size : 37.7 KiB (0%)
Title : For English Dub / SDH
Language : English
Default : No
Forced : No
SOURCE : Shout Factory USA UHD Blu-ray (2024)

Text #9
ID : 14
Format : PGS
Muxing mode : zlib
Codec ID : S_HDMV/PGS
Codec ID/Info : Picture based subtitle format used on BDs/HD-DVDs
Duration : 2 h 3 min
Bit rate : 21.8 kb/s
Frame rate : 0.402 FPS
Count of elements : 2974
Stream size : 19.2 MiB (0%)
Title : For English Dub / SDH / PGS
Language : English
Default : No
Forced : No
SOURCE : Shout Factory USA UHD Blu-ray (2024)

Text #10
ID : 15
Format : UTF-8
Codec ID : S_TEXT/UTF8
Codec ID/Info : UTF-8 Plain Text
Duration : 2 h 2 min
Bit rate : 39 b/s
Frame rate : 0.113 FPS
Count of elements : 836
Stream size : 35.4 KiB (0%)
Language : Arabic
Default : No
Forced : No
SOURCE : iTunes WEB-DL

Text #11
ID : 16
Format : PGS
Muxing mode : zlib
Codec ID : S_HDMV/PGS
Codec ID/Info : Picture based subtitle format used on BDs/HD-DVDs
Duration : 2 h 2 min
Bit rate : 16.8 kb/s
Frame rate : 0.264 FPS
Count of elements : 1944
Stream size : 14.7 MiB (0%)
Title : Traditional
Language : Chinese
Default : No
Forced : No
SOURCE : Studio Ghibli JPN Blu-ray (2024)

Text #12
ID : 17
Format : UTF-8
Codec ID : S_TEXT/UTF8
Codec ID/Info : UTF-8 Plain Text
Duration : 2 h 3 min
Bit rate : 28 b/s
Frame rate : 0.133 FPS
Count of elements : 980
Stream size : 26.0 KiB (0%)
Title : Parisian
Language : French
Default : No
Forced : No
SOURCE : iTunes WEB-DL

Text #13
ID : 18
Format : PGS
Muxing mode : zlib
Codec ID : S_HDMV/PGS
Codec ID/Info : Picture based subtitle format used on BDs/HD-DVDs
Duration : 2 h 3 min
Bit rate : 14.2 kb/s
Frame rate : 0.265 FPS
Count of elements : 1960
Stream size : 12.6 MiB (0%)
Title : Parisian / PGS
Language : French
Default : No
Forced : No
SOURCE : Shout Factory USA UHD Blu-ray (2024)

Text #14
ID : 19
Format : PGS
Muxing mode : zlib
Codec ID : S_HDMV/PGS
Codec ID/Info : Picture based subtitle format used on BDs/HD-DVDs
Duration : 2 h 2 min
Bit rate : 15.9 kb/s
Frame rate : 0.295 FPS
Count of elements : 2178
Stream size : 14.0 MiB (0%)
Language : Japanese
Default : No
Forced : No
SOURCE : Studio Ghibli JPN Blu-ray (2024)

Text #15
ID : 20
Format : PGS
Muxing mode : zlib
Codec ID : S_HDMV/PGS
Codec ID/Info : Picture based subtitle format used on BDs/HD-DVDs
Duration : 2 h 3 min
Bit rate : 17.0 kb/s
Frame rate : 0.298 FPS
Count of elements : 2206
Stream size : 15.0 MiB (0%)
Title : SDH
Language : Japanese
Default : No
Forced : No
SOURCE : Studio Ghibli JPN Blu-ray (2024)

Text #16
ID : 21
Format : PGS
Muxing mode : zlib
Codec ID : S_HDMV/PGS
Codec ID/Info : Picture based subtitle format used on BDs/HD-DVDs
Duration : 2 h 3 min
Bit rate : 13.9 kb/s
Frame rate : 0.239 FPS
Count of elements : 1770
Stream size : 12.2 MiB (0%)
Language : Korean
Default : No
Forced : No
SOURCE : Studio Ghibli JPN Blu-ray (2024)

Text #17
ID : 22
Format : PGS
Muxing mode : zlib
Codec ID : S_HDMV/PGS
Codec ID/Info : Picture based subtitle format used on BDs/HD-DVDs
Duration : 2 h 3 min
Bit rate : 17.0 kb/s
Frame rate : 0.263 FPS
Count of elements : 1944
Stream size : 15.0 MiB (0%)
Title : Simplified
Language : Chinese
Default : No
Forced : No
SOURCE : Studio Ghibli JPN Blu-ray (2024)

Text #18
ID : 23
Format : PGS
Muxing mode : zlib
Codec ID : S_HDMV/PGS
Codec ID/Info : Picture based subtitle format used on BDs/HD-DVDs
Duration : 2 h 2 min
Bit rate : 16.8 kb/s
Frame rate : 0.265 FPS
Count of elements : 1958
Stream size : 14.8 MiB (0%)
Title : Traditional
Language : Chinese
Default : No
Forced : No
SOURCE : Studio Ghibli JPN Blu-ray (2024)

Text #19
ID : 24
Format : UTF-8
Codec ID : S_TEXT/UTF8
Codec ID/Info : UTF-8 Plain Text
Duration : 2 h 3 min
Bit rate : 28 b/s
Frame rate : 0.117 FPS
Count of elements : 867
Stream size : 25.3 KiB (0%)
Title : Latin American
Language : Spanish
Default : No
Forced : No
SOURCE : iTunes WEB-DL

Text #20
ID : 25
Format : PGS
Muxing mode : zlib
Codec ID : S_HDMV/PGS
Codec ID/Info : Picture based subtitle format used on BDs/HD-DVDs
Duration : 2 h 3 min
Bit rate : 13.9 kb/s
Frame rate : 0.235 FPS
Count of elements : 1734
Stream size : 12.3 MiB (0%)
Title : Latin American / PGS
Language : Spanish
Default : No
Forced : No
SOURCE : Shout Factory USA UHD Blu-ray (2024)

Menu
00:00:00.000 : Chapter 01
00:05:30.121 : Chapter 02
00:10:16.157 : Chapter 03
00:17:07.776 : Chapter 04
00:20:43.700 : Chapter 05
00:24:12.325 : Chapter 06
00:29:22.552 : Chapter 07
00:35:32.547 : Chapter 08
00:41:40.247 : Chapter 09
00:50:10.298 : Chapter 10
00:57:36.619 : Chapter 11
01:02:38.337 : Chapter 12
01:05:09.196 : Chapter 13
01:09:34.128 : Chapter 14
01:12:57.456 : Chapter 15
01:15:44.414 : Chapter 16
01:19:13.081 : Chapter 17
01:21:15.078 : Chapter 18
01:24:41.951 : Chapter 19
01:27:23.196 : Chapter 20
01:30:03.231 : Chapter 21
01:35:21.465 : Chapter 22
01:39:53.779 : Chapter 23
01:45:19.730 : Chapter 24
01:47:45.125 : Chapter 25
01:51:22.759 : Chapter 26
01:59:18.067 : Chapter 27
02:03:56.095 : Chapter 28

Source Media Information

General
Unique ID : 339740183621615926864824496033087953332 (0xFF97944CAACE5CD4C596A2FE9A2D19B4)
Complete name : The.Boy.and.the.Heron.2024.2160p.UHD.Blu-ray.Remux.DV.HDR.HEVC.TrueHD.Atmos.7.1-CiNEPHiLES.mkv
Format : Matroska
Format version : Version 4
File size : 79.1 GiB
Duration : 2 h 3 min
Overall bit rate mode : Variable
Overall bit rate : 91.3 Mb/s
Movie name : The Boy and the Heron (2024)
Encoded date : UTC 2024-07-04 02:01:49
Writing application : mkvmerge v83.0 ('Circle Of Friends') 64-bit
Writing library : libebml v1.4.5 + libmatroska v1.7.1
IMDB : tt6587046
TMDB : movie/508883

Video
ID : 1
Format : HEVC
Format/Info : High Efficiency Video Coding
Format profile : Main 10@L5.1@High
HDR format : Dolby Vision, Version 1.0, dvhe.07.06, BL+EL+RPU, Blu-ray compatible / SMPTE ST 2086, HDR10 compatible
Codec ID : V_MPEGH/ISO/HEVC
Duration : 2 h 3 min
Bit rate : 81.3 Mb/s
Width : 3 840 pixels
Height : 2 160 pixels
Display aspect ratio : 16:9
Frame rate mode : Constant
Frame rate : 23.976 (24000/1001) FPS
Color space : YUV
Chroma subsampling : 4:2:0 (Type 2)
Bit depth : 10 bits
Bits/(Pixel*Frame) : 0.409
Stream size : 70.4 GiB (89%)
Default : Yes
Forced : No
Color range : Limited
Color primaries : BT.2020
Transfer characteristics : PQ
Matrix coefficients : BT.2020 non-constant
Mastering display color primaries : BT.2020
Mastering display luminance : min: 0.0001 cd/m2, max: 1000 cd/m2
Maximum Content Light Level : 991 cd/m2
Maximum Frame-Average Light Level : 299 cd/m2
Source : Shout Factory USA UHD Blu-ray (2024)

Audio #1
ID : 2
Format : MLP FBA 16-ch
Format/Info : Meridian Lossless Packing FBA with 16-channel presentation
Commercial name : Dolby TrueHD with Dolby Atmos
Codec ID : A_TRUEHD
Duration : 2 h 3 min
Bit rate mode : Variable
Bit rate : 4 156 kb/s
Maximum bit rate : 6 408 kb/s
Channel(s) : 8 channels
Channel layout : L R C LFE Ls Rs Lb Rb
Sampling rate : 48.0 kHz
Frame rate : 1 200.000 FPS (40 SPF)
Bit depth : 24 bits
Compression mode : Lossless
Stream size : 3.60 GiB (5%)
Title : Dolby Atmos
Language : Japanese
Default : Yes
Forced : No
Source : Shout Factory USA UHD Blu-ray (2024)
Number of dynamic objects : 11
Bed channel count : 1 channel
Bed channel configuration : LFE

Audio #2
ID : 3
Format : AC-3
Format/Info : Audio Coding 3
Commercial name : Dolby Digital
Codec ID : A_AC3
Duration : 2 h 3 min
Bit rate mode : Constant
Bit rate : 640 kb/s
Channel(s) : 6 channels
Channel layout : L R C LFE Ls Rs
Sampling rate : 48.0 kHz
Frame rate : 31.250 FPS (1536 SPF)
Compression mode : Lossy
Stream size : 567 MiB (1%)
Title : Compatibility Track
Language : Japanese
Service kind : Complete Main
Default : No
Forced : No
Source : Shout Factory USA UHD Blu-ray (2024)

Audio #3
ID : 4
Format : MLP FBA 16-ch
Format/Info : Meridian Lossless Packing FBA with 16-channel presentation
Commercial name : Dolby TrueHD with Dolby Atmos
Codec ID : A_TRUEHD
Duration : 2 h 3 min
Bit rate mode : Variable
Bit rate : 4 256 kb/s
Maximum bit rate : 6 519 kb/s
Channel(s) : 8 channels
Channel layout : L R C LFE Ls Rs Lb Rb
Sampling rate : 48.0 kHz
Frame rate : 1 200.000 FPS (40 SPF)
Bit depth : 24 bits
Compression mode : Lossless
Stream size : 3.68 GiB (5%)
Title : English Dub / Dolby Atmos
Language : English
Default : No
Forced : No
Source : Shout Factory USA UHD Blu-ray (2024)
Number of dynamic objects : 11
Bed channel count : 1 channel
Bed channel configuration : LFE

Audio #4
ID : 5
Format : AC-3
Format/Info : Audio Coding 3
Commercial name : Dolby Digital
Codec ID : A_AC3
Duration : 2 h 3 min
Bit rate mode : Constant
Bit rate : 640 kb/s
Channel(s) : 6 channels
Channel layout : L R C LFE Ls Rs
Sampling rate : 48.0 kHz
Frame rate : 31.250 FPS (1536 SPF)
Compression mode : Lossy
Stream size : 567 MiB (1%)
Title : English Dub / Compatibility Track
Language : English
Service kind : Complete Main
Default : No
Forced : No
Source : Shout Factory USA UHD Blu-ray (2024)

Text #1
ID : 6
Format : UTF-8
Codec ID : S_TEXT/UTF8
Codec ID/Info : UTF-8 Plain Text
Duration : 2 h 3 min
Bit rate : 24 b/s
Frame rate : 0.113 FPS
Count of elements : 838
Stream size : 22.2 KiB (0%)
Language : English (US)
Default : No
Forced : No
Source : Shout Factory USA UHD Blu-ray (2024)

Text #2
ID : 7
Format : UTF-8
Codec ID : S_TEXT/UTF8
Codec ID/Info : UTF-8 Plain Text
Duration : 2 h 3 min
Bit rate : 30 b/s
Frame rate : 0.163 FPS
Count of elements : 1210
Stream size : 27.8 KiB (0%)
Title : SDH
Language : English (US)
Default : No
Forced : No
Source : Shout Factory USA UHD Blu-ray (2024)

Text #3
ID : 8
Format : PGS
Codec ID : S_HDMV/PGS
Codec ID/Info : Picture based subtitle format used on BDs/HD-DVDs
Duration : 2 h 3 min
Bit rate : 12.7 kb/s
Frame rate : 0.227 FPS
Count of elements : 1676
Stream size : 11.2 MiB (0%)
Title : PGS
Language : English (US)
Default : No
Forced : No
Source : Shout Factory USA UHD Blu-ray (2024)

Text #4
ID : 9
Format : PGS
Codec ID : S_HDMV/PGS
Codec ID/Info : Picture based subtitle format used on BDs/HD-DVDs
Duration : 2 h 3 min
Bit rate : 16.2 kb/s
Frame rate : 0.326 FPS
Count of elements : 2420
Stream size : 14.3 MiB (0%)
Title : SDH / PGS
Language : English (US)
Default : No
Forced : No
Source : Shout Factory USA UHD Blu-ray (2024)

Text #5
ID : 10
Format : UTF-8
Codec ID : S_TEXT/UTF8
Codec ID/Info : UTF-8 Plain Text
Duration : 2 h 1 min
Bit rate : 2 b/s
Frame rate : 0.005 FPS
Count of elements : 39
Stream size : 1.82 KiB (0%)
Title : For signs/writing and end credits song on English Dub
Language : English (US)
Default : No
Forced : No
Source : Shout Factory USA UHD Blu-ray (2024)

Text #6
ID : 11
Format : PGS
Codec ID : S_HDMV/PGS
Codec ID/Info : Picture based subtitle format used on BDs/HD-DVDs
Duration : 2 h 3 min
Bit rate : 909 b/s
Frame rate : 0.011 FPS
Count of elements : 78
Stream size : 823 KiB (0%)
Title : For signs/writing and end credits song on English Dub / PGS
Language : English (US)
Default : Yes
Forced : Yes
Source : Shout Factory USA UHD Blu-ray (2024)

Text #7
ID : 12
Format : UTF-8
Codec ID : S_TEXT/UTF8
Codec ID/Info : UTF-8 Plain Text
Duration : 2 h 2 min
Bit rate : 34 b/s
Frame rate : 0.147 FPS
Count of elements : 1087
Stream size : 31.0 KiB (0%)
Title : For English Dub
Language : English (US)
Default : No
Forced : No
Source : Shout Factory USA UHD Blu-ray (2024)

Text #8
ID : 13
Format : UTF-8
Codec ID : S_TEXT/UTF8
Codec ID/Info : UTF-8 Plain Text
Duration : 2 h 3 min
Bit rate : 41 b/s
Frame rate : 0.201 FPS
Count of elements : 1489
Stream size : 37.7 KiB (0%)
Title : For English Dub / SDH
Language : English (US)
Default : No
Forced : No
Source : Shout Factory USA UHD Blu-ray (2024)

Text #9
ID : 14
Format : PGS
Codec ID : S_HDMV/PGS
Codec ID/Info : Picture based subtitle format used on BDs/HD-DVDs
Duration : 2 h 3 min
Bit rate : 21.8 kb/s
Frame rate : 0.402 FPS
Count of elements : 2974
Stream size : 19.2 MiB (0%)
Title : For English Dub / SDH / PGS
Language : English (US)
Default : No
Forced : No
Source : Shout Factory USA UHD Blu-ray (2024)

Text #10
ID : 15
Format : UTF-8
Codec ID : S_TEXT/UTF8
Codec ID/Info : UTF-8 Plain Text
Duration : 2 h 2 min
Bit rate : 39 b/s
Frame rate : 0.113 FPS
Count of elements : 836
Stream size : 35.4 KiB (0%)
Language : Arabic
Default : No
Forced : No
Source : iTunes WEB-DL

Text #11
ID : 16
Format : PGS
Codec ID : S_HDMV/PGS
Codec ID/Info : Picture based subtitle format used on BDs/HD-DVDs
Duration : 2 h 2 min
Bit rate : 16.8 kb/s
Frame rate : 0.264 FPS
Count of elements : 1944
Stream size : 14.7 MiB (0%)
Title : Traditional
Language : Cantonese (Hant)
Default : No
Forced : No
Source : Studio Ghibli JPN Blu-ray (2024)

Text #12
ID : 17
Format : UTF-8
Codec ID : S_TEXT/UTF8
Codec ID/Info : UTF-8 Plain Text
Duration : 2 h 3 min
Bit rate : 28 b/s
Frame rate : 0.133 FPS
Count of elements : 980
Stream size : 26.0 KiB (0%)
Title : Parisian
Language : French (FR)
Default : No
Forced : No
Source : iTunes WEB-DL

Text #13
ID : 18
Format : PGS
Codec ID : S_HDMV/PGS
Codec ID/Info : Picture based subtitle format used on BDs/HD-DVDs
Duration : 2 h 3 min
Bit rate : 14.2 kb/s
Frame rate : 0.265 FPS
Count of elements : 1960
Stream size : 12.6 MiB (0%)
Title : Parisian / PGS
Language : French (FR)
Default : No
Forced : No
Source : Shout Factory USA UHD Blu-ray (2024)

Text #14
ID : 19
Format : PGS
Codec ID : S_HDMV/PGS
Codec ID/Info : Picture based subtitle format used on BDs/HD-DVDs
Duration : 2 h 2 min
Bit rate : 15.9 kb/s
Frame rate : 0.295 FPS
Count of elements : 2178
Stream size : 14.0 MiB (0%)
Language : Japanese
Default : No
Forced : No
Source : Studio Ghibli JPN Blu-ray (2024)

Text #15
ID : 20
Format : PGS
Codec ID : S_HDMV/PGS
Codec ID/Info : Picture based subtitle format used on BDs/HD-DVDs
Duration : 2 h 3 min
Bit rate : 17.0 kb/s
Frame rate : 0.298 FPS
Count of elements : 2206
Stream size : 15.0 MiB (0%)
Title : SDH
Language : Japanese
Default : No
Forced : No
Source : Studio Ghibli JPN Blu-ray (2024)

Text #16
ID : 21
Format : PGS
Codec ID : S_HDMV/PGS
Codec ID/Info : Picture based subtitle format used on BDs/HD-DVDs
Duration : 2 h 3 min
Bit rate : 13.9 kb/s
Frame rate : 0.239 FPS
Count of elements : 1770
Stream size : 12.2 MiB (0%)
Language : Korean
Default : No
Forced : No
Source : Studio Ghibli JPN Blu-ray (2024)

Text #17
ID : 22
Format : PGS
Codec ID : S_HDMV/PGS
Codec ID/Info : Picture based subtitle format used on BDs/HD-DVDs
Duration : 2 h 3 min
Bit rate : 17.0 kb/s
Frame rate : 0.263 FPS
Count of elements : 1944
Stream size : 15.0 MiB (0%)
Title : Simplified
Language : Mandarin (Hans)
Default : No
Forced : No
Source : Studio Ghibli JPN Blu-ray (2024)

Text #18
ID : 23
Format : PGS
Codec ID : S_HDMV/PGS
Codec ID/Info : Picture based subtitle format used on BDs/HD-DVDs
Duration : 2 h 2 min
Bit rate : 16.8 kb/s
Frame rate : 0.265 FPS
Count of elements : 1958
Stream size : 14.8 MiB (0%)
Title : Traditional
Language : Mandarin (Hant)
Default : No
Forced : No
Source : Studio Ghibli JPN Blu-ray (2024)

Text #19
ID : 24
Format : UTF-8
Codec ID : S_TEXT/UTF8
Codec ID/Info : UTF-8 Plain Text
Duration : 2 h 3 min
Bit rate : 28 b/s
Frame rate : 0.117 FPS
Count of elements : 867
Stream size : 25.3 KiB (0%)
Title : Latin American
Language : Spanish (Latin America)
Default : No
Forced : No
Source : iTunes WEB-DL

Text #20
ID : 25
Format : PGS
Codec ID : S_HDMV/PGS
Codec ID/Info : Picture based subtitle format used on BDs/HD-DVDs
Duration : 2 h 3 min
Bit rate : 13.9 kb/s
Frame rate : 0.235 FPS
Count of elements : 1734
Stream size : 12.3 MiB (0%)
Title : Latin American / PGS
Language : Spanish (Latin America)
Default : No
Forced : No
Source : Shout Factory USA UHD Blu-ray (2024)

Menu
00:00:00.000 : en:Chapter 01
00:05:30.121 : en:Chapter 02
00:10:16.157 : en:Chapter 03
00:17:07.776 : en:Chapter 04
00:20:43.700 : en:Chapter 05
00:24:12.325 : en:Chapter 06
00:29:22.552 : en:Chapter 07
00:35:32.547 : en:Chapter 08
00:41:40.247 : en:Chapter 09
00:50:10.298 : en:Chapter 10
00:57:36.619 : en:Chapter 11
01:02:38.337 : en:Chapter 12
01:05:09.196 : en:Chapter 13
01:09:34.128 : en:Chapter 14
01:12:57.456 : en:Chapter 15
01:15:44.414 : en:Chapter 16
01:19:13.081 : en:Chapter 17
01:21:15.078 : en:Chapter 18
01:24:41.951 : en:Chapter 19
01:27:23.196 : en:Chapter 20
01:30:03.231 : en:Chapter 21
01:35:21.465 : en:Chapter 22
01:39:53.779 : en:Chapter 23
01:45:19.730 : en:Chapter 24
01:47:45.125 : en:Chapter 25
01:51:22.759 : en:Chapter 26
01:59:18.067 : en:Chapter 27
02:03:56.095 : en:Chapter 28

Files