[SubsPlease] Monogatari Series - Off & Monster Season - 01 (1080p) [196CB8E2]

The sequel to the 'Final Season' story arc of the Monogatari series.

From the past to the future, their story continues.

Now that he has graduated from high school, Koyomi Araragi&s story ends here. His story is truly over now, but the stories of the girls Koyomi saved - their stories - are not over yet.

This is the prequel or sequel to their stories and their struggles.

Release date: Saturday 6th July 2024
Genre: Drama, Mystery, Supernatural

General
Unique ID : 0 (0x0)
Complete name : [SubsPlease] Monogatari Series - Off & Monster Season - 01 (1080p) [196CB8E2].mkv
Format : Matroska
Format version : Version 4
File size : 1.82 GiB
Duration : 31 min 59 s
Overall bit rate : 8 124 kb/s
Frame rate : 23.976 FPS
Encoded date : 1970-01-01 00:00:00 UTC
Writing application : no_variable_data
Writing library : no_variable_data
Attachments : Roboto-Medium.ttf / Roboto-MediumItalic.ttf / arial.ttf / arialbd.ttf / comic.ttf / comicbd.ttf / times.ttf / timesbd.ttf / trebuc.ttf / trebucbd.ttf / verdana.ttf / verdanab.ttf / CONSOLA.TTF / CONSOLAB.TTF

Video
ID : 1
Format : AVC
Format/Info : Advanced Video Codec: Format profile : High@L4
Format settings : CABAC / 4 Ref Frames
Format settings, CABAC : Yes
Format settings, Reference frames : 4 frames
Codec ID : V_MPEG4/ISO/AVC
Duration : 31 min 59 s
Bit rate : 8 000 kb/s
Width : 1 920 pixels
Height : 1 080 pixels
Display aspect ratio : 16:9
Frame rate mode : Constant
Frame rate : 23.976 (23976/1000) FPS
Color space : YUV
Chroma subsampling : 4:2:0
Bit depth : 8 bits
Scan type : Progressive
Bits/(Pixel*Frame) : 0.161
Stream size : 1.78 GiB (98%)
Writing library : x264 core 164
Encoding settings : cabac=1 / ref=4 / deblock=1:1:1 / analyse=0x3:0x113 / me=hex / subme=8 / psy=1 / psy_rd=0.40:0.00 / mixed_ref=1 / me_range=16 / chroma_me=1 / trellis=2 / 8x8dct=1 / cqm=0 / deadzone=21,11 / fast_pskip=1 / chroma_qp_offset=-2 / threads=12 / lookahead_threads=2 / sliced_threads=0 / nr=0 / decimate=1 / interlaced=0 / bluray_compat=0 / constrained_intra=0 / bframes=0 / weightp=2 / keyint=96 / keyint_min=48 / scenecut=40 / intra_refresh=0 / rc_lookahead=48 / rc=2pass / mbtree=1 / bitrate=8000 / ratetol=1.0 / qcomp=0.60 / qpmin=0 / qpmax=69 / qpstep=4 / cplxblur=20.0 / qblur=0.5 / vbv_maxrate=12000 / vbv_bufsize=18000 / nal_hrd=none / filler=0 / ip_ratio=1.40 / aq=1:0.60
Default : Yes
Forced : No
Color range : Limited
Color primaries : BT.709
Transfer characteristics : BT.709
Matrix coefficients : BT.709

Audio
ID : 2
Format : AAC LC
Format/Info : Advanced Audio Codec Low Complexity
Codec ID : A_AAC-2
Duration : 31 min 59 s
Bit rate : 128 kb/s
Channel(s) : 2 channels
Channel layout : L R
Sampling rate : 44.1 kHz
Frame rate : 43.066 FPS (1024 SPF)
Compression mode : Lossy
Stream size : 29.3 MiB (2%)
Language : Japanese
Default : Yes
Forced : No

Text
ID : 3
Format : ASS
Codec ID : S_TEXT/ASS
Codec ID/Info : Advanced Sub Station Alpha
Duration : 31 min 53 s
Bit rate : 168 b/s
Frame rate : 0.287 FPS
Count of elements : 550
Compression mode : Lossless
Stream size : 39.4 KiB (0%)
Title : English subs
Language : English
Default : Yes
Forced : No

Files