The Stranger by the Shore 2020 1080p BluRay REMUX AVC DTS-HD MA 5 1- iTY

After coming out to his parents, aspiring novelist Shun Hashimoto has no one to turn to, until the day he meets high schooler Mio Chibana on the beach. The two instantly click—just before Mio has to leave for the mainland. Now three years later, Mio returns with a confession. But after all this time, will Shun feel the same?

Release date: Friday 11th September 2020
Genre: Drama, Romance, Slice of Life
Duration: 59 min

Format : Matroska
Format version : Version 4
File size : 18.6 GiB
Duration : 58 min 46 s
Overall bit rate mode : Variable
Overall bit rate : 45.3 Mb/s
Frame rate : 23.976 FPS
Movie name : The Stranger by the Shore (2020) 1080p BluRay REMUX - @iTYReleases
Encoded date : 2023-06-11 08:51:38 UTC
Writing application : mkvmerge v76.0 ('Celebration') 64-bit
Writing library : libebml v1.4.4 + libmatroska v1.7.1
Attachments : GANDHISANS-BOLD.OTF / Titles_KokoroConnect.ttf / GandhiSans_Regular.otf / DFTeK4.LI17Q5G5.ttf / Allan_Rooster.ttf / F5AJXKED.ttf / NotoSans-Regular.ttf / KGFALLFORYOU.ttf

Video
ID : 1
ID in the original source medium : 4113 (0x1011)
Format : AVC
Format/Info : Advanced Video Codec: Format profile : High@L4.1
Format settings : CABAC / 4 Ref Frames
Format settings, CABAC : Yes
Format settings, Reference frames : 4 frames
Codec ID : V_MPEG4/ISO/AVC
Duration : 58 min 46 s
Bit rate mode : Variable
Bit rate : 29.0 Mb/s
Maximum bit rate : 36.0 Mb/s
Width : 1 920 pixels
Height : 1 080 pixels
Display aspect ratio : 16:9
Frame rate mode : Constant
Frame rate : 23.976 (24000/1001) FPS
Color space : YUV
Chroma subsampling : 4:2:0
Bit depth : 8 bits
Scan type : Progressive
Bits/(Pixel*Frame) : 0.583
Time code of first frame : 00:59:59:0000000000
Stream size : 11.9 GiB (64%)
Title : iTY
Language : Japanese
Default : No
Forced : No
Original source medium : Blu-ray

Audio #1
ID : 2
ID in the original source medium : 4352 (0x1100)
Format : DTS XLL
Format/Info : Digital Theater Systems
Commercial name : DTS-HD Master Audio
Codec ID : A_DTS
Duration : 58 min 46 s
Bit rate mode : Variable
Bit rate : 3 617 kb/s
Channel(s) : 6 channels
Channel layout : C L R Ls Rs LFE
Sampling rate : 48.0 kHz
Frame rate : 93.750 FPS (512 SPF)
Bit depth : 24 bits
Compression mode : Lossless
Stream size : 1.48 GiB (8%)
Title : DTS-HD Master Audio 5.1 (48kHz, 24-bit) - iTY
Language : Japanese
Default : Yes
Forced : No
Original source medium : Blu-ray

Audio #2
ID : 3
ID in the original source medium : 4352 (0x1100)
Format : DTS
Format/Info : Digital Theater Systems
Codec ID : A_DTS
Duration : 58 min 46 s
Bit rate mode : Constant
Bit rate : 1 509 kb/s
Channel(s) : 6 channels
Channel layout : C L R Ls Rs LFE
Sampling rate : 48.0 kHz
Frame rate : 93.750 FPS (512 SPF)
Bit depth : 24 bits
Compression mode : Lossy
Stream size : 634 MiB (3%)
Title : DTS 5.1 (48kHz, 24-bit) - iTY
Language : Japanese
Default : No
Forced : No
Original source medium : Blu-ray

Audio #3
ID : 4
ID in the original source medium : 4353 (0x1101)
Format : DTS XLL
Format/Info : Digital Theater Systems
Commercial name : DTS-HD Master Audio
Codec ID : A_DTS
Duration : 58 min 46 s
Bit rate mode : Variable
Bit rate : 2 109 kb/s
Channel(s) : 2 channels
Channel layout : L R
Sampling rate : 48.0 kHz
Frame rate : 93.750 FPS (512 SPF)
Bit depth : 24 bits
Compression mode : Lossless
Stream size : 887 MiB (5%)
Title : DTS-HD Master Audio 2.0 (48kHz, 24-bit) - iTY
Language : Japanese
Default : No
Forced : No
Original source medium : Blu-ray

Audio #4
ID : 5
ID in the original source medium : 4353 (0x1101)
Format : DTS
Format/Info : Digital Theater Systems
Codec ID : A_DTS
Duration : 58 min 46 s
Bit rate mode : Constant
Bit rate : 1 509 kb/s
Channel(s) : 2 channels
Channel layout : L R
Sampling rate : 48.0 kHz
Frame rate : 93.750 FPS (512 SPF)
Bit depth : 24 bits
Compression mode : Lossy
Stream size : 634 MiB (3%)
Title : DTS 2.0 (48kHz, 24-bit) - iTY
Language : Japanese
Default : No
Forced : No
Original source medium : Blu-ray

Audio #5
ID : 6
ID in the original source medium : 4354 (0x1102)
Format : DTS XLL
Format/Info : Digital Theater Systems
Commercial name : DTS-HD Master Audio
Codec ID : A_DTS
Duration : 58 min 46 s
Bit rate mode : Variable
Bit rate : 2 113 kb/s
Channel(s) : 2 channels
Channel layout : L R
Sampling rate : 48.0 kHz
Frame rate : 93.750 FPS (512 SPF)
Bit depth : 24 bits
Compression mode : Lossless
Stream size : 888 MiB (5%)
Title : Commentary [Shun Hashimoto: Taishi Murata & Mio Chibana: Yoshitsugu Matsuoka] - DTS-HD Master Audio 2.0 (48kHz, 24-bit) - iTY
Language : Japanese
Default : No
Forced : No
Original source medium : Blu-ray

Audio #6
ID : 7
ID in the original source medium : 4354 (0x1102)
Format : DTS
Format/Info : Digital Theater Systems
Codec ID : A_DTS
Duration : 58 min 46 s
Bit rate mode : Constant
Bit rate : 1 509 kb/s
Channel(s) : 2 channels
Channel layout : L R
Sampling rate : 48.0 kHz
Frame rate : 93.750 FPS (512 SPF)
Bit depth : 24 bits
Compression mode : Lossy
Stream size : 634 MiB (3%)
Title : Commentary [Shun Hashimoto: Taishi Murata & Mio Chibana: Yoshitsugu Matsuoka] - DTS 2.0 (48kHz, 24-bit) - iTY
Language : Japanese
Default : No
Forced : No
Original source medium : Blu-ray

Audio #7
ID : 8
ID in the original source medium : 4355 (0x1103)
Format : DTS XLL
Format/Info : Digital Theater Systems
Commercial name : DTS-HD Master Audio
Codec ID : A_DTS
Duration : 58 min 46 s
Bit rate mode : Variable
Bit rate : 2 124 kb/s
Channel(s) : 2 channels
Channel layout : L R
Sampling rate : 48.0 kHz
Frame rate : 93.750 FPS (512 SPF)
Bit depth : 24 bits
Compression mode : Lossless
Stream size : 893 MiB (5%)
Title : Commentary [Original: Kanna Kii & Director: Akiyo Oohashi] - DTS-HD Master Audio 2.0 (48kHz, 24-bit) - iTY
Language : Japanese
Default : No
Forced : No
Original source medium : Blu-ray

Audio #8
ID : 9
ID in the original source medium : 4355 (0x1103)
Format : DTS
Format/Info : Digital Theater Systems
Codec ID : A_DTS
Duration : 58 min 46 s
Bit rate mode : Constant
Bit rate : 1 509 kb/s
Channel(s) : 2 channels
Channel layout : L R
Sampling rate : 48.0 kHz
Frame rate : 93.750 FPS (512 SPF)
Bit depth : 24 bits
Compression mode : Lossy
Stream size : 634 MiB (3%)
Title : Commentary [Original: Kanna Kii & Director: Akiyo Oohashi] - DTS 2.0 (48kHz, 24-bit) - iTY
Language : Japanese
Default : No
Forced : No
Original source medium : Blu-ray

Audio #9
ID : 10
Format : AAC LC
Format/Info : Advanced Audio Codec Low Complexity
Codec ID : A_AAC-2
Duration : 58 min 43 s
Bit rate : 256 kb/s
Channel(s) : 2 channels
Channel layout : L R
Sampling rate : 48.0 kHz
Frame rate : 46.875 FPS (1024 SPF)
Compression mode : Lossy
Delay relative to video : 950 ms
Stream size : 108 MiB (1%)
Title : AAC 2.0 (48kHz) - iTY
Language : English
Default : No
Forced : No

Text #1
ID : 11
Format : ASS
Codec ID : S_TEXT/ASS
Codec ID/Info : Advanced Sub Station Alpha
Duration : 57 min 37 s
Bit rate : 114 b/s
Frame rate : 0.277 FPS
Count of elements : 957
Compression mode : Lossless
Stream size : 48.5 KiB (0%)
Title : Full Subtitles - iTY
Language : English
Default : Yes
Forced : No

Text #2
ID : 12
Format : ASS
Codec ID : S_TEXT/ASS
Codec ID/Info : Advanced Sub Station Alpha
Duration : 55 min 0 s
Bit rate : 28 b/s
Frame rate : 0.030 FPS
Count of elements : 100
Compression mode : Lossless
Stream size : 11.6 KiB (0%)
Title : Signs & Songs - iTY
Language : English
Default : No
Forced : No

Files