[Bunny-Apocalypse] Oshi no Ko - S01 [BD 1080p HEVC 10bit FLAC] [Dual-Audio]

When a pregnant young starlet appears in Gorou Amemiya&s countryside medical clinic, the doctor takes it upon himself to safely (and secretly) deliver Ai Hoshino&s child so she can make a scandal-free return to the stage. But no good deed goes unpunished, and on the eve of her delivery, he finds himself slain at the hands of Ai&s deluded stalker — and subsequently reborn as Ai&s child, Aquamarine Hoshino! The glitz and glamor of showbiz hide the dark underbelly of the entertainment industry, threatening to dull the shine of his favorite star. Can he help his new mother rise to the top of the charts? And what will he do when unthinkable disaster strikes?

Release date: Wednesday 12th April 2023
Genre: Drama, Mystery, Psychological, Supernatural

General
Unique ID : 147552595783169750500180619663002410694 (0x6F0198A46F7FA479F39CBF912DC59EC6)
Complete name : Oshi no Ko - S01E01 [BD 1080p HEVC 10bit FLAC] [Dual-Audio].mkv
Format : Matroska
Format version : Version 4
File size : 3.76 GiB
Duration : 1 h 22 min
Overall bit rate mode : Variable
Overall bit rate : 6 559 kb/s
Frame rate : 23.976 FPS
Encoded date : 2024-07-07 17:17:42 UTC
Writing application : mkvmerge v82.0 ('I'm The President') 64-bit
Writing library : libebml v1.4.5 + libmatroska v1.7.1
Attachments : 123Marker.ttf / AB-kotatsu-STR.otf / AB-yurumin.otf / AB-yurumin-STR.otf / acmesa.TTF / acmesab.TTF / AdelicaBrush.ttf / AdLibBT-Regular.ttf / AdobeCleanHan-Bold-Str.otf / akbar.ttf / Alike-Regular.ttf / ANA-ONEIROPARMENI82.TTF / Andine.otf / annifont.ttf / ANTIQUEOLIVESTD-BLACK.OTF / A-OTF-MARUFOPRO-BOLD-STR.OTF / ARCENA.ttf / arial.ttf / arialbd.ttf / ArialBitmap50sp.otf / ARIAL-BOLDMT-STR.TTF / ArialMT.ttf / ARIALROUNDEDMTBOLD.TTF / Atma-Regular.ttf / AVERIASERIFBOLD.TTF / Balthazar-Regular.ttf / BEAUTIFULEVERYTIME.TTF / BEOSANS-R12BOLD.OTF / Big Fat Marker_0.ttf / BILLIEBOB.OTF / BIP.TTF / BLOCKPARTY.TTF / BOOPEE.TTF / BPreplay-Bold.ttf / BrushStroke 35 Normal.ttf / BubbleRainbow.ttf / CACMOOSE.TTF / calibri.ttf / calibrib.otf / calibril.otf / CATALOGUE.TTF / CaveatBrush-Regular.ttf / Cedarville-Cursive.ttf / Ceviche One-Regular.ttf / CEVICHEONE-REGULAR.TTF / CfBlackboardPersonalRegular-AKPg.ttf / CHARME.TTF / ChevinDemiBold-Str.otf / Chewy-Regular.ttf / CHINESETAKEAWAY.TTF / Comprehension-SemiBold.ttf / CONFORMITYNORMAL.TTF / CORPID-BLACK-STR.OTF / CORPID-BOLD.OTF / Crap-AOSL (phone-tall).otf / DANIELBLACK.TTF / Denne Marker.ttf / Devonshire-Regular.ttf / Font Awesome 5 Free-Regular-400.otf / Font Awesome 5 Free-Solid-900.otf / FOT_DNPShuei4goStd-M.otf / FOTPOPHAPPINESSSTRP-EXTRABOLD.OTF / FROMWHEREYOUARE.TTF / FRUTIGERLTSTD-BLACK.OTF / GandhiSans-Bold_0.otf / GandhiSans-BoldItalic_0.otf / gm.ttf / GOTHIC.TTF / grain.ttf / GT_Maru_Black.otf / GTMARU-BLACK.OTF / Handlee-Regular.ttf / helvetica_medium.ttf / HelveticaLt.ttf / HelveticaRegular.otf / HiraginoKakuGothicW7JIS2004.otf / HiraMaruStdW8-STR.otf / Hoffmanhand.ttf / Holligate Signature.otf / ITCKRIST.TTF / JBS2-STR.otf / KGRedHands.ttf / KozGoPr6n-B.ttf / KozGoPro-Bold-Str.ttf / KozukaGothicPr6NR.ttf / LHFSCRIPTANA-REGULAR.TTF / LXGWWenKaiBold-STR.otf / Mamelon 5 Hi Regular-STR.otf / MIKIYUFONTCRAYON.TTF / MochiyPopPOneR-STR.otf / MONSTERGAME.TTF / Motley2.TTF / NewRodinPro-B.otf / NOMORELIES.TTF / OpenSans-Bold.ttf / OpenSans-Light.ttf / OpenSans-Medium.ttf / OpenSans-Regular.ttf / OpenSans-SemiBold.ttf / PopHappinessStd-EB-Str.otf / QUADRAAT-BOLD.OTF / QUADRAAT-REGULAR.OTF / ReggaeStdB-STR.otf / Roboto-300.ttf / Roboto-500.ttf / Roboto-700.ttf / ROBOTO-LIGHT.TTF / Roboto-Medium.ttf / SarasaTermCLBold-STR.otf / SECONDBREAKFAST.TTF / serangkaianpattern.ttf / SERANGKAIAN-PATTERN.TTF / Shinryu-STR.ttf / Signika-Bold.ttf / SIGNIKA-REGULAR.OTF / Signika-Regular.ttf / SILE.TTF / Stem-Medium.otf / Stem-Regular.otf / SweiSugarCJKjpBold-STR.otf / SWIFT-EXTRABOLD.OTF / tahomabd.ttf / TechnaSans-Regular.otf / times.ttf / timesbd.ttf / TimesNewRomanPSMT.ttf / Trajan.ttf / TT_SeuratB-Str.otf / TTFolkMedium-STR.otf / UDDigiKyokashoStd-Bold.otf / WONDERFULL.TTF / YurukaStd-UB-Str.otf / Zap Raygun V2.0.ttf / ZapRaygunV20.ttf / ZenMaruGothic-Black-Str.ttf / ZenMaruGothic-Light-Str.ttf / MyriadPro-Semibold.ttf / MyriadPro-SemiboldIt.otf / A1GOTHICMJIS2004WEB.TTF / ADELICA BRUSH.TTF / Advert-Bold.otf / AHUNDREDMILES.TTF / Aileron-Bold.otf / Aileron-Heavy.otf / AlegreyaSans-ExtraBold.ttf / Andine.otf / Apex Brush DEMO.otf / ArefRuqaa-Regular.ttf / ARLRDBD.TTF / Asap-Medium.ttf / AVANTGARDELT-BOLD.TTF / Bubble Rainbow.otf / calibri.ttf / candarab.ttf / Candombe.ttf / CC AstronautsInTrouble.otf / Cedarville-Cursive.ttf / CHIAROSTDEN-B.OTF / CRAYONALPHABET.TTF / DarkmodeOn_XBd.ttf / Dashing Unicorn.otf / DJBCHALKITUP.TTF / DJBYARDSALEMARKER-BOLD.TTF / DK Cool Crayon.ttf / Fontin_Sans_R.otf / FOT-GMaruGoPro-B.otf / Kozuka Mincho Pro Strp H.otf / Lato-Bold.ttf / Lato-Medium.ttf / Lato-Regular.ttf / Lato-Semibold.ttf / MerriweatherSans-Bold.ttf / MerriweatherSans-ExtraBold.ttf / Neuton-Regular.ttf / NyataFTR-Regular.otf / PTSans-Bold.ttf / Stem-Bold.otf / Stem-Medium.otf / Stem-Regular.otf / WOODCUTTERDRIPPING.ttf / BIKO-BOLD.OTF / A1GothicMJIS2004Web.ttf / AvantGardeLT-Bold.ttf / AveriaSerifBold.ttf / BeautifulEveryTime.ttf / BeoSans-R12Bold.otf / Biko_Bold.otf / BIP.ttf / Calibri.ttf / Candara-Bold.ttf / Catalogue.ttf / CCAstronautsInTrouble-Regular.otf / Charme.ttf / Corpid-Black-Str.otf / CrayonAlphabet.ttf / DJBChalkItUp.ttf / DJBYardSaleMarker-Bold.ttf / DKCoolCrayon.ttf / FontAwesome5Free-Solid.otf / FOT-ChiaroStd-B-EN.otf / FOTPopHappinessStrp-ExtraBold.otf / FROMWHEREYOUARE_0.TTF / GandhiSansBoldItalic.OTF / GandhiSansBold.OTF / GMaruGoPro-B.otf / KristenITC-Regular.ttf / Lato-Bol.ttf / Lato-Regular(1).ttf / MonsterGame.ttf / Nomorelies.ttf / PoloBrush.ttf / Quadraat-Bold.otf / Quadraat-Regular.otf / secondbreakfast.ttf / arial.ttf / NotoSans-Medium.ttf / AA_BERTOLT_BRECHT_HUN.TTF / AA_Signika_Hun.ttf / Ad HocRegular.ttf / Ariston_hun.ttf / Brush Japanese_hun.ttf / Generis Sans Heavy.ttf / HARUCakorAyam.ttf / HARU_123Marker_hunMedium.ttf / HARU_AOTF Kaisho MCBK1 ProBold.ttf / HARU_AndalusRegular.ttf / HARU_Baqa_hunRegular.ttf / HARU_Baskerville Old Face_hunRegular.ttf / HARU_Blemished_hunRegular.ttf / HARU_BoxingWizards-Regular.ttf / HARU_Brush Hour.ttf / HARU_Cartoon_hunRegular.ttf / HARU_Elected Office_hunRegular.ttf / HARU_FOT-CHIAROSTDB.ttf / HARU_FOT-HUMMINGSTDE.ttf / HARU_FOT-Seurat-ProN-Strp-Extra.ttf / HARU_FOTSeurat Pro DBMika_hunRegular.ttf / HARU_Grunge Arrias Black_hunRegular.otf / HARU_Maiandra GD.ttf / Hzs_CCPulpFiction.ttf / PENCILFIED.TTF / Wilderness hun.ttf / badankadonk.ttf / ZenMaruGothic-Black.ttf / A-OTFFOLKPROM-EN-BOLD.TTF / abadi_mt_condensed_bold.ttf / FOT-PopJoyStd-B.otf / HEARTSHAPES-REGULAR.TTF / OpenSans-SemiBold.ttf / PetitaBold_1.ttf / Roboto-Regular.ttf / segoeui.ttf / segoeuisl.ttf / seguisb.ttf / seguisym.ttf / Corpid-Bold.otf / pala.ttf / palai.ttf

Video
ID : 1
Format : HEVC
Format/Info : High Efficiency Video Coding
Format profile : Main 10@L4@Main
Codec ID : V_MPEGH/ISO/HEVC
Duration : 1 h 22 min
Bit rate : 3 699 kb/s
Width : 1 920 pixels
Height : 1 080 pixels
Display aspect ratio : 16:9
Frame rate mode : Constant
Frame rate : 23.976 (24000/1001) FPS
Color space : YUV
Chroma subsampling : 4:2:0
Bit depth : 10 bits
Bits/(Pixel*Frame) : 0.074
Stream size : 2.12 GiB (56%)
Writing library : x265 3.5+98-g3449bc85e+20-gc1a540a56:[Windows][clang 15.0.7][64 bit] Kyouko 10bit+8bit+12bit
Encoding settings : rc=crf / crf=15.0000 / qcomp=0.67 / qpstep=4 / stats-write=0 / stats-read=0 / qscale-mode=0 / no-lossless / no-cu-lossless / aq-mode=3 / no-limit-aq1 / aq-strength=0.85 / aq-bias-strength=1.00 / limit-aq1-strength=1.00 / cbqpoffs=-3 / crqpoffs=-3 / ipratio=1.20 / pbratio=1.20 / psy-rd=1.80 / psy-rdoq=0.80 / psy-bscale=300 / psy-pscale=256 / psy-iscale=96 / deblock=-1:-1 / ref=5 / limit-refs=1 / no-limit-modes / bframes=8 / b-adapt=2 / bframe-bias=0 / b-pyramid / b-intra / weightp / weightb / min-keyint=1 / max-keyint=240 / rc-lookahead=80 / gop-lookahead=0 / scenecut=40 / hist-scenecut=0 / radl=0 / max-cu-size=32 / min-cu-size=8 / me=3 / subme=6 / merange=32 / rdoq-level=1 / rd=5 / rdpenalty=0 / dynamic-rd=0.00 / rd-refine / refine-tolerance=1.400 / ----- / cutree / cutree-strength=1.65 / cutree-minqpoffs=-69.00 / cutree-maxqpoffs=69.00 / no-sao / rect / no-amp / no-open-gop / wpp / no-pmode / no-pme / no-psnr / no-ssim / nr-intra=0 / nr-inter=0 / no-constrained-intra / no-strong-intra-smoothing / max-tu-size=16 / tu-inter-depth=3 / tu-intra-depth=3 / limit-tu=0 / qg-size=16 / qpmax=69 / qpmin=0 / ----- / cpuid=1111039 / frame-threads=5 / numa-pools=+ / log-level=2 / input-csp=1 / input-res=1920x1080 / interlace=0 / level-idc=0 / high-tier=1 / uhd-bd=0 / no-allow-non-conformance / no-repeat-headers / no-aud / no-hrd / info / hash=0 / no-temporal-layers / lookahead-slices=0 / no-splice / no-intra-refresh / no-ssim-rd / signhide / no-tskip / max-merge=4 / temporal-mvp / no-frame-dup / no-hme / no-analyze-src-pics / no-sao-non-deblock / selective-sao=0 / no-early-skip / no-rskip / no-fast-intra / no-tskip-fast / no-splitrd-skip / zone-count=0 / no-strict-cbr / no-rc-grain / no-const-vbv / sar=0 / overscan=0 / videoformat=5 / range=0 / colorprim=1 / transfer=1 / colormatrix=1 / chromaloc=0 / display-window=0 / cll=0,0 / min-luma=0 / max-luma=1023 / log2-max-poc-lsb=8 / vui-timing-info / vui-hrd-info / slices=1 / no-opt-qp-pps / no-opt-ref-list-length-pps / no-multi-pass-opt-rps / scenecut-bias=0.05 / hist-threshold=0.03 / no-opt-cu-delta-qp / no-aq-motion / no-hdr10 / no-hdr10-opt / no-dhdr10-opt / no-idr-recovery-sei / analysis-reuse-level=0 / analysis-save-reuse-level=0 / analysis-load-reuse-level=0 / scale-factor=0 / refine-intra=0 / refine-inter=0 / refine-mv=1 / refine-ctu-distortion=0 / no-limit-sao / ctu-info=0 / no-lowpass-dct / refine-analysis-type=0 / copy-pic=1 / max-ausize-factor=1.0 / no-dynamic-refine / no-single-sei / no-hevc-aq / no-svt / no-field / qp-adaptation-range=1.00 / scenecut-aware-qp=0conformance-window-offsets / right=0 / bottom=0 / decoder-max-rate=0 / no-vbv-live-multi-pass
Language : Japanese
Default : Yes
Forced : No
Color range : Limited
Color primaries : BT.709
Transfer characteristics : BT.709
Matrix coefficients : BT.709

Audio #1
ID : 2
Format : FLAC
Format/Info : Free Lossless Audio Codec: Codec ID : A_FLAC
Duration : 1 h 22 min
Bit rate mode : Variable
Bit rate : 681 kb/s
Channel(s) : 2 channels
Channel layout : L R
Sampling rate : 48.0 kHz
Frame rate : 10.417 FPS (4608 SPF)
Bit depth : 24 bits
Compression mode : Lossless
Stream size : 399 MiB (10%)
Title : ENG 01 - English Opening Version
Writing library : Lavf61.1.100
Language : English
Default : Yes
Forced : No
MD5 of the unencoded content : 14BC69F1EF25213CDFEE83257DA181B6

Audio #2
ID : 3
Format : FLAC
Format/Info : Free Lossless Audio Codec: Codec ID : A_FLAC
Duration : 1 h 22 min
Bit rate mode : Variable
Bit rate : 670 kb/s
Channel(s) : 2 channels
Channel layout : L R
Sampling rate : 48.0 kHz
Frame rate : 10.417 FPS (4608 SPF)
Bit depth : 24 bits
Compression mode : Lossless
Stream size : 393 MiB (10%)
Title : ENG 02 - Japanese Opening Version
Writing library : Lavf61.1.100
Language : English
Default : No
Forced : No
MD5 of the unencoded content : 14BC69F1EF25213CDFEE83257DA181B6

Audio #3
ID : 4
Format : FLAC
Format/Info : Free Lossless Audio Codec: Codec ID : A_FLAC
Duration : 1 h 22 min
Bit rate mode : Variable
Bit rate : 1 322 kb/s
Channel(s) : 2 channels
Channel layout : L R
Sampling rate : 48.0 kHz
Frame rate : 11.719 FPS (4096 SPF)
Bit depth : 24 bits
Compression mode : Lossless
Stream size : 776 MiB (20%)
Title : JPN
Writing library : libFLAC 1.3.2 (2017-01-01)
Language : Japanese
Default : No
Forced : No
MD5 of the unencoded content : 0046B8685665E5E3F1330210B05D5ECA

Text #1
ID : 5
Format : ASS
Codec ID : S_TEXT/ASS
Codec ID/Info : Advanced Sub Station Alpha
Duration : 1 h 20 min
Bit rate : 9 944 b/s
Frame rate : 3.672 FPS
Count of elements : 17834
Compression mode : Lossless
Stream size : 5.76 MiB (0%)
Title : Signs & Songs ( English Opening )
Language : English
Default : Yes
Forced : Yes

Text #2
ID : 6
Format : ASS
Codec ID : S_TEXT/ASS
Codec ID/Info : Advanced Sub Station Alpha
Duration : 1 h 20 min
Bit rate : 9 945 b/s
Frame rate : 3.672 FPS
Count of elements : 17834
Compression mode : Lossless
Stream size : 5.76 MiB (0%)
Title : Signs & Songs 01 ( Japanese Opening )
Language : English
Default : No
Forced : No

Text #3
ID : 7
Format : ASS
Codec ID : S_TEXT/ASS
Codec ID/Info : Advanced Sub Station Alpha
Duration : 1 h 20 min
Bit rate : 9 945 b/s
Frame rate : 3.671 FPS
Count of elements : 17831
Compression mode : Lossless
Stream size : 5.76 MiB (0%)
Title : Signs & Songs 02 ( Japanese Opening )
Language : English
Default : No
Forced : No

Text #4
ID : 8
Format : ASS
Codec ID : S_TEXT/ASS
Codec ID/Info : Advanced Sub Station Alpha
Duration : 1 h 21 min
Bit rate : 9 987 b/s
Frame rate : 3.916 FPS
Count of elements : 19250
Compression mode : Lossless
Stream size : 5.85 MiB (0%)
Title : Dialogue 01
Language : English
Default : No
Forced : No

Text #5
ID : 9
Format : ASS
Codec ID : S_TEXT/ASS
Codec ID/Info : Advanced Sub Station Alpha
Duration : 1 h 21 min
Bit rate : 9 981 b/s
Frame rate : 3.916 FPS
Count of elements : 19248
Compression mode : Lossless
Stream size : 5.85 MiB (0%)
Title : Dialogue 02
Language : English
Default : No
Forced : No

Menu
00:00:00.000 : en:Part A
00:15:36.018 : en:Part B
00:25:16.014 : en:Part C
00:39:43.089 : en:Part D
01:01:00.073 : en:Part E
01:19:39.483 : en:Opening
01:21:10.866 : en:Epilogue

Files