Magic Mike 2012 UHD BluRay 1080p DDP 5 1 HDR10 x265-SM737

A male stripper teaches a younger performer how to party, pick up women, and make easy money.

Year: 2012
Duration: 110 min
Release date: Friday 29th June 2012
Genre: Comedy, Drama

Rating

6.5/10
(12885 Votes)

0

Your Rating

Stars:
Channing Tatum, Alex Pettyfer, Olivia Munn, Matthew McConaughey

https://www.imdb.com/title/tt1915581/

General
Unique ID : 13503258806925937217512468131630567819 (0xA28A20F742F0FF9EF0B7F7D58F0518B)
Complete name : Magic.Mike.2012.UHD.BluRay.1080p.DDP.5.1.HDR10.x265-SM737.mkv
Format : Matroska
Format version : Version 4
File size : 4.57 GiB
Duration : 1 h 50 min
Overall bit rate : 5 919 kb/s
Frame rate : 23.976 FPS
Encoded date : 2024-06-30 03:30:42 UTC
Writing application : mkvmerge v82.0 ('I'm The President') 64-bit
Writing library : libebml v1.4.5 + libmatroska v1.7.1 / Lavf61.1.100

Video
ID : 1
Format : HEVC
Format/Info : High Efficiency Video Coding
Format profile : Main 10@L5.2@Main
HDR format : SMPTE ST 2086, HDR10 compatible
Codec ID : V_MPEGH/ISO/HEVC
Duration : 1 h 50 min
Bit rate : 5 003 kb/s
Width : 1 920 pixels
Height : 804 pixels
Display aspect ratio : 2.40:1
Frame rate mode : Constant
Frame rate : 23.976 (24000/1001) FPS
Color space : YUV
Chroma subsampling : 4:2:0 (Type 2)
Bit depth : 10 bits
Bits/(Pixel*Frame) : 0.135
Stream size : 3.86 GiB (84%)
Writing library : x265 3.6+1-aa7f602f7:[Windows][GCC 13.2.0][64 bit] 10bit
Encoding settings : cpuid=1111039 / frame-threads=4 / numa-pools=16 / wpp / no-pmode / no-pme / no-psnr / no-ssim / log-level=2 / input-csp=1 / input-res=1920x804 / interlace=0 / total-frames=0 / level-idc=52 / high-tier=1 / uhd-bd=0 / ref=6 / no-allow-non-conformance / repeat-headers / annexb / no-aud / no-eob / no-eos / no-hrd / info / hash=0 / temporal-layers=0 / open-gop / min-keyint=24 / keyint=240 / gop-lookahead=0 / bframes=8 / b-adapt=2 / b-pyramid / bframe-bias=0 / rc-lookahead=40 / lookahead-slices=4 / scenecut=40 / no-hist-scenecut / radl=0 / no-splice / no-intra-refresh / ctu=64 / min-cu-size=8 / rect / no-amp / max-tu-size=32 / tu-inter-depth=1 / tu-intra-depth=1 / limit-tu=0 / rdoq-level=2 / dynamic-rd=0.00 / no-ssim-rd / signhide / no-tskip / nr-intra=0 / nr-inter=0 / no-constrained-intra / strong-intra-smoothing / max-merge=3 / limit-refs=3 / limit-modes / me=3 / subme=3 / merange=57 / temporal-mvp / no-frame-dup / no-hme / no-weightp / no-weightb / no-analyze-src-pics / deblock=-3:-3 / no-sao / no-sao-non-deblock / rd=4 / selective-sao=0 / no-early-skip / rskip / no-fast-intra / no-tskip-fast / no-cu-lossless / no-b-intra / no-splitrd-skip / rdpenalty=0 / psy-rd=2.00 / psy-rdoq=1.00 / no-rd-refine / no-lossless / cbqpoffs=0 / crqpoffs=0 / rc=abr / bitrate=5000 / qcomp=0.60 / qpstep=4 / stats-write=0 / stats-read=2 / cplxblur=20.0 / qblur=0.5 / ipratio=1.40 / pbratio=1.30 / aq-mode=4 / aq-strength=1.00 / cutree / zone-count=0 / no-strict-cbr / qg-size=32 / no-rc-grain / qpmax=69 / qpmin=0 / no-const-vbv / sar=1 / overscan=0 / videoformat=5 / range=0 / colorprim=9 / transfer=16 / colormatrix=9 / chromaloc=1 / chromaloc-top=2 / chromaloc-bottom=2 / display-window=0 / master-display=G(13250,34500)B(7500,3000)R(34000,16000)WP(15635,16450)L(10000000,1) / cll=734,143 / min-luma=0 / max-luma=1023 / log2-max-poc-lsb=8 / vui-timing-info / vui-hrd-info / slices=1 / no-opt-qp-pps / no-opt-ref-list-length-pps / no-multi-pass-opt-rps / scenecut-bias=0.05 / no-opt-cu-delta-qp / no-aq-motion / hdr10 / hdr10-opt / no-dhdr10-opt / no-idr-recovery-sei / analysis-reuse-level=0 / analysis-save-reuse-level=0 / analysis-load-reuse-level=0 / scale-factor=0 / refine-intra=0 / refine-inter=0 / refine-mv=1 / refine-ctu-distortion=0 / no-limit-sao / ctu-info=0 / no-lowpass-dct / refine-analysis-type=0 / copy-pic=1 / max-ausize-factor=1.0 / no-dynamic-refine / no-single-sei / no-hevc-aq / no-svt / no-field / qp-adaptation-range=1.00 / scenecut-aware-qp=0conformance-window-offsets / right=0 / bottom=0 / decoder-max-rate=0 / no-vbv-live-multi-pass / no-mcstf / no-sbrc
Default : Yes
Forced : No
Color range : Limited
Color primaries : BT.2020
Transfer characteristics : PQ
Matrix coefficients : BT.2020 non-constant
Mastering display color primaries : Display P3
Mastering display luminance : min: 0.0001 cd/m2, max: 1000 cd/m2
Maximum Content Light Level : 734
MaxCLL_Original : 734 cd/m2
Maximum Frame-Average Light Level : 143
MaxFALL_Original : 143 cd/m2

Audio
ID : 2
Format : E-AC-3
Format/Info : Enhanced AC-3
Commercial name : Dolby Digital Plus
Codec ID : A_EAC3
Duration : 1 h 50 min
Bit rate mode : Constant
Bit rate : 768 kb/s
Channel(s) : 6 channels
Channel layout : L R C LFE Ls Rs
Sampling rate : 48.0 kHz
Frame rate : 31.250 FPS (1536 SPF)
Compression mode : Lossy
Stream size : 607 MiB (13%)
Title : Surround
Language : English
Service kind : Complete Main
Default : Yes
Forced : No

Text #1
ID : 3
Format : PGS
Muxing mode : zlib
Codec ID : S_HDMV/PGS
Codec ID/Info : Picture based subtitle format used on BDs/HD-DVDs
Duration : 1 h 50 min
Bit rate : 52.7 kb/s
Frame rate : 0.730 FPS
Count of elements : 4828
Stream size : 41.5 MiB (1%)
Title : English (SDH)
Language : English
Default : Yes
Forced : No

Text #2
ID : 4
Format : PGS
Muxing mode : zlib
Codec ID : S_HDMV/PGS
Codec ID/Info : Picture based subtitle format used on BDs/HD-DVDs
Duration : 1 h 50 min
Bit rate : 39.8 kb/s
Frame rate : 0.483 FPS
Count of elements : 3196
Stream size : 31.4 MiB (1%)
Title : English
Language : English
Default : No
Forced : No

Text #3
ID : 5
Format : ASS
Codec ID : S_TEXT/ASS
Codec ID/Info : Advanced Sub Station Alpha
Duration : 1 h 45 min
Bit rate : 103 b/s
Frame rate : 0.253 FPS
Count of elements : 1606
Compression mode : Lossless
Stream size : 80.6 KiB (0%)
Title : Chinese (Simplified)
Language : Chinese
Default : No
Forced : No

Text #4
ID : 6
Format : PGS
Muxing mode : zlib
Codec ID : S_HDMV/PGS
Codec ID/Info : Picture based subtitle format used on BDs/HD-DVDs
Duration : 1 h 45 min
Bit rate : 32.6 kb/s
Frame rate : 0.498 FPS
Count of elements : 3164
Stream size : 24.7 MiB (1%)
Title : Chinese (Traditional)
Language : Chinese
Default : No
Forced : No

Text #5
ID : 7
Format : PGS
Muxing mode : zlib
Codec ID : S_HDMV/PGS
Codec ID/Info : Picture based subtitle format used on BDs/HD-DVDs
Duration : 1 h 46 min
Bit rate : 22.9 kb/s
Frame rate : 0.282 FPS
Count of elements : 1798
Stream size : 17.4 MiB (0%)
Title : Danish
Language : Danish
Default : No
Forced : No

Text #6
ID : 8
Format : ASS
Codec ID : S_TEXT/ASS
Codec ID/Info : Advanced Sub Station Alpha
Duration : 1 h 45 min
Bit rate : 80 b/s
Frame rate : 0.153 FPS
Count of elements : 975
Compression mode : Lossless
Stream size : 62.5 KiB (0%)
Title : Dutch
Language : Dutch
Default : No
Forced : No

Text #7
ID : 9
Format : ASS
Codec ID : S_TEXT/ASS
Codec ID/Info : Advanced Sub Station Alpha
Duration : 1 h 46 min
Bit rate : 78 b/s
Frame rate : 0.177 FPS
Count of elements : 1131
Compression mode : Lossless
Stream size : 61.5 KiB (0%)
Title : Finnish
Language : Finnish
Default : No
Forced : No

Text #8
ID : 10
Format : PGS
Muxing mode : zlib
Codec ID : S_HDMV/PGS
Codec ID/Info : Picture based subtitle format used on BDs/HD-DVDs
Duration : 1 h 50 min
Bit rate : 27.9 kb/s
Frame rate : 0.419 FPS
Count of elements : 2770
Stream size : 22.0 MiB (0%)
Title : French (Canadian)
Language : French
Default : No
Forced : No

Text #9
ID : 11
Format : PGS
Muxing mode : zlib
Codec ID : S_HDMV/PGS
Codec ID/Info : Picture based subtitle format used on BDs/HD-DVDs
Duration : 1 h 49 min
Bit rate : 29.6 kb/s
Frame rate : 0.400 FPS
Count of elements : 2640
Stream size : 23.3 MiB (0%)
Title : French (Parisian)
Language : French
Default : No
Forced : No

Text #10
ID : 12
Format : PGS
Muxing mode : zlib
Codec ID : S_HDMV/PGS
Codec ID/Info : Picture based subtitle format used on BDs/HD-DVDs
Duration : 1 h 50 min
Bit rate : 37.2 kb/s
Frame rate : 0.480 FPS
Count of elements : 3170
Stream size : 29.3 MiB (1%)
Title : French (SDH) (Parisian)
Language : French
Default : No
Forced : No

Text #11
ID : 13
Format : PGS
Muxing mode : zlib
Codec ID : S_HDMV/PGS
Codec ID/Info : Picture based subtitle format used on BDs/HD-DVDs
Duration : 1 h 50 min
Bit rate : 36.6 kb/s
Frame rate : 0.339 FPS
Count of elements : 2240
Stream size : 28.9 MiB (1%)
Title : German
Language : German
Default : No
Forced : No

Text #12
ID : 14
Format : PGS
Muxing mode : zlib
Codec ID : S_HDMV/PGS
Codec ID/Info : Picture based subtitle format used on BDs/HD-DVDs
Duration : 1 h 50 min
Bit rate : 32.1 kb/s
Frame rate : 0.433 FPS
Count of elements : 2864
Stream size : 25.3 MiB (1%)
Title : Japanese
Language : Japanese
Default : No
Forced : No

Text #13
ID : 15
Format : ASS
Codec ID : S_TEXT/ASS
Codec ID/Info : Advanced Sub Station Alpha
Duration : 1 h 47 min
Bit rate : 79 b/s
Frame rate : 0.161 FPS
Count of elements : 1038
Compression mode : Lossless
Stream size : 62.1 KiB (0%)
Title : Norwegian
Language : Norwegian
Default : No
Forced : No

Text #14
ID : 16
Format : PGS
Muxing mode : zlib
Codec ID : S_HDMV/PGS
Codec ID/Info : Picture based subtitle format used on BDs/HD-DVDs
Duration : 1 h 46 min
Bit rate : 20.3 kb/s
Frame rate : 0.354 FPS
Count of elements : 2268
Stream size : 15.5 MiB (0%)
Title : Portuguese (Brazilian)
Language : Portuguese
Default : No
Forced : No

Text #15
ID : 17
Format : PGS
Muxing mode : zlib
Codec ID : S_HDMV/PGS
Codec ID/Info : Picture based subtitle format used on BDs/HD-DVDs
Duration : 1 h 50 min
Bit rate : 33.5 kb/s
Frame rate : 0.420 FPS
Count of elements : 2778
Stream size : 26.5 MiB (1%)
Title : Spanish (Latin American)
Language : Spanish
Default : No
Forced : No

Text #16
ID : 18
Format : PGS
Muxing mode : zlib
Codec ID : S_HDMV/PGS
Codec ID/Info : Picture based subtitle format used on BDs/HD-DVDs
Duration : 1 h 48 min
Bit rate : 21.9 kb/s
Frame rate : 0.276 FPS
Count of elements : 1788
Stream size : 16.9 MiB (0%)
Title : Swedish
Language : Swedish
Default : No
Forced : No

Menu
00:00:00.000 : Industry Recommendation
00:10:28.336 : Recruited
00:19:39.470 : In Dallas' Empire
00:26:15.824 : Like A Virgin
00:38:24.052 : Sister in Stripshow
00:46:11.310 : On the Bench
00:56:32.139 : Miami Calling
01:06:41.915 : Sharp Objects
01:17:47.329 : Out of Control
01:25:21.825 : His Best Friend
01:35:25.970 : Breakfast
01:46:23.085 : End Credits

Magic.Mike.2012.UHD.BluRay.2160p.DTS-HD.MA.5.1.HEVC.HYBRID.REMUX-FraMeSToR

Files