But Im a Cheerleader 2000 Directors Cut 1080p BluRay DDP 2 0 x265-edge2020

A naive teenager is sent to rehab camp when her straitlaced parents and friends suspect her of being a lesbian.

Year: 1999
Duration: 85 min
Release date: Friday 11th August 2000
Genre: Comedy, Drama, Romance

Rating

6.6/10
(23960 Votes)

0

Your Rating

Stars:
Natasha Lyonne, Michelle Williams, Brandt Wille, Bud Cort, Mink Stole, RuPaul, Katie Donahue, Danielle Rene

Source - But.Im.a.Cheerleader.1999.Directors.Cut.4K.Restoration.1080p.BluRay.Remux.AVC.DD.2.0

General
Unique ID : 25671923354198147399008388173578349831 (0x13503B8B22A4001B51331EFEAB2FAD07)
Complete name : But.Im.a.Cheerleader.2000.Directors.Cut.1080p.BluRay.DDP.2.0.x265-edge2020.mkv
Format : Matroska
Format version : Version 4
File size : 8.43 GiB
Duration : 1 h 30 min
Overall bit rate : 13.3 Mb/s
Encoded date : UTC 2024-06-26 00:35:02
Writing application : mkvmerge v85.0 ('Shame For You') 64-bit
Writing library : libebml v1.4.5 + libmatroska v1.7.1

Video
ID : 1
Format : HEVC
Format/Info : High Efficiency Video Coding
Format profile : Main 10@L4@Main
Codec ID : V_MPEGH/ISO/HEVC
Duration : 1 h 30 min
Bit rate : 13.1 Mb/s
Width : 1 920 pixels
Height : 1 040 pixels
Display aspect ratio : 1.85:1
Frame rate mode : Constant
Frame rate : 23.976 (24000/1001) FPS
Color space : YUV
Chroma subsampling : 4:2:0
Bit depth : 10 bits
Bits/(Pixel*Frame) : 0.273
Stream size : 8.29 GiB (98%)
Writing library : x265 3.6+13+1-726aec126:[Windows][MSVC 1939][64 bit] 10bit
Encoding settings : cpuid=1111039 / frame-threads=4 / numa-pools=24 / wpp / no-pmode / no-pme / no-psnr / no-ssim / log-level=2 / input-csp=1 / input-res=1920x1040 / interlace=0 / total-frames=130430 / level-idc=0 / high-tier=1 / uhd-bd=0 / ref=4 / no-allow-non-conformance / no-repeat-headers / annexb / no-aud / no-eob / no-eos / no-hrd / info / hash=0 / temporal-layers=0 / open-gop / min-keyint=23 / keyint=250 / gop-lookahead=0 / bframes=4 / b-adapt=2 / b-pyramid / bframe-bias=0 / rc-lookahead=25 / lookahead-slices=4 / scenecut=40 / no-hist-scenecut / radl=0 / no-splice / no-intra-refresh / ctu=64 / min-cu-size=8 / rect / no-amp / max-tu-size=32 / tu-inter-depth=1 / tu-intra-depth=1 / limit-tu=0 / rdoq-level=2 / dynamic-rd=0.00 / no-ssim-rd / signhide / no-tskip / nr-intra=0 / nr-inter=0 / no-constrained-intra / strong-intra-smoothing / max-merge=3 / limit-refs=3 / limit-modes / me=3 / subme=3 / merange=57 / temporal-mvp / no-frame-dup / no-hme / weightp / no-weightb / no-analyze-src-pics / deblock=0:0 / sao / no-sao-non-deblock / rd=4 / selective-sao=4 / no-early-skip / rskip / no-fast-intra / no-tskip-fast / no-cu-lossless / no-b-intra / no-splitrd-skip / rdpenalty=0 / psy-rd=2.00 / psy-rdoq=1.00 / no-rd-refine / no-lossless / cbqpoffs=0 / crqpoffs=0 / rc=crf / crf=21.0 / qcomp=0.60 / qpstep=4 / stats-write=0 / stats-read=0 / ipratio=1.40 / pbratio=1.30 / aq-mode=2 / aq-strength=1.00 / aq-bias-strength=1.00 / cutree / zone-count=0 / no-strict-cbr / qg-size=32 / no-rc-grain / qpmax=69 / qpmin=0 / no-const-vbv / sar=0 / overscan=0 / videoformat=5 / range=0 / colorprim=2 / transfer=2 / colormatrix=2 / chromaloc=0 / display-window=0 / cll=0,0 / min-luma=0 / max-luma=1023 / log2-max-poc-lsb=8 / vui-timing-info / vui-hrd-info / slices=1 / no-opt-qp-pps / no-opt-ref-list-length-pps / no-multi-pass-opt-rps / scenecut-bias=0.05 / no-opt-cu-delta-qp / no-aq-motion / no-hdr10 / no-hdr10-opt / no-dhdr10-opt / no-idr-recovery-sei / analysis-reuse-level=0 / analysis-save-reuse-level=0 / analysis-load-reuse-level=0 / scale-factor=0 / refine-intra=0 / refine-inter=0 / refine-mv=1 / refine-ctu-distortion=0 / no-limit-sao / ctu-info=0 / no-lowpass-dct / refine-analysis-type=0 / copy-pic=1 / max-ausize-factor=1.0 / no-dynamic-refine / no-single-sei / no-hevc-aq / no-svt / no-field / qp-adaptation-range=1.00 / scenecut-aware-qp=0 / conformance-window-offsets / right=0 / bottom=0 / decoder-max-rate=0 / no-vbv-live-multi-pass / no-mcstf / no-sbrc
Default : Yes
Forced : No

Audio
ID : 2
Format : E-AC-3
Format/Info : Enhanced AC-3
Commercial name : Dolby Digital Plus
Codec ID : A_EAC3
Duration : 1 h 30 min
Bit rate mode : Constant
Bit rate : 224 kb/s
Channel(s) : 2 channels
Channel layout : L R
Sampling rate : 48.0 kHz
Frame rate : 31.250 FPS (1536 SPF)
Compression mode : Lossy
Stream size : 145 MiB (2%)
Title : Dolby Digital Plus / 2.0 / 48 kHz / 224 kbps
Language : English
Service kind : Complete Main
Default : Yes
Forced : No

Text
ID : 3
Format : UTF-8
Codec ID : S_TEXT/UTF8
Codec ID/Info : UTF-8 Plain Text
Duration : 1 h 29 min
Bit rate : 55 b/s
Count of elements : 1173
Stream size : 36.0 KiB (0%)
Title : SHD
Language : English
Default : Yes
Forced : No

Menu
00:00:00.000 : en:1. Licked
00:03:03.850 : en:2. Grace
00:06:39.399 : en:3. Clear & Direct
00:10:42.475 : en:4. True Directions
00:15:50.032 : en:5. Introductions
00:19:20.742 : en:6. Support Group
00:22:00.402 : en:7. Aversion Therapy
00:27:00.702 : en:8. Women's Roles
00:30:36.167 : en:9. Family Therapy
00:34:14.385 : en:10. Song Writing
00:38:50.661 : en:11. Awakened
00:41:44.126 : en:12. Pleasurable
00:45:43.991 : en:13. Defectors
00:49:11.615 : en:14, Dancing Queen
00:52:59.634 : en:15. Disturbing
00:56:14.871 : en:16. Playing Rough
01:00:31.252 : en:17. Simulated Sexual Lifestyle
01:03:39.816 : en:18. Touching & Feeling
01:07:20.453 : en:19. Hormonal Hussy
01:10:25.971 : en:20. No Going Back
01:13:01.085 : en:21. Verbalizing
01:16:12.234 : en:22. Graduation
01:19:22.466 : en:23. Cheered On
01:22:22.437 : en:24. End Credits

Files