Air Force One 1997 UHD BluRay 1080p DDP 7 1 DoVi HDR x265-SM737

Hijackers seize the plane carrying the President of the United States and his family, but he (an ex-soldier) works from hiding to defeat them.

Year: 1997
Duration: 124 min
Release date: Friday 25th July 1997
Genre: Action, Drama, Thriller

Rating

6.3/10
(68419 Votes)

0

Your Rating

Stars:
Harrison Ford, Gary Oldman, Glenn Close, Wendy Crewson

https://www.imdb.com/title/tt0118571/

General
Unique ID : 279389216815691685397741099538950451255 (0xD23067E7C78A822C6C480EC21D8CF037)
Complete name : Air.Force.One.1997.UHD.BluRay.1080p.DDP.7.1.DoVi.HDR.x265-SM737.mkv
Format : Matroska
Format version : Version 4
File size : 6.35 GiB
Duration : 2 h 4 min
Overall bit rate : 7 299 kb/s
Frame rate : 23.976 FPS
Encoded date : 2024-06-14 18:59:42 UTC
Writing application : mkvmerge v82.0 ('I'm The President') 64-bit
Writing library : libebml v1.4.5 + libmatroska v1.7.1 / Lavf61.1.100

Video
ID : 1
Format : HEVC
Format/Info : High Efficiency Video Coding
Format profile : Main 10@L5.2@High
HDR format : Dolby Vision, Version 1.0, dvhe.08.10, BL+RPU, HDR10 compatible / SMPTE ST 2086, HDR10 compatible / SMPTE ST 2086, HDR10 compatible
Codec ID : V_MPEGH/ISO/HEVC
Duration : 2 h 4 min
Bit rate : 5 036 kb/s
Width : 1 920 pixels
Height : 800 pixels
Display aspect ratio : 2.40:1
Frame rate mode : Constant
Frame rate : 23.976 (24000/1001) FPS
Color space : YUV
Chroma subsampling : 4:2:0 (Type 2)
Bit depth : 10 bits
Bits/(Pixel*Frame) : 0.137
Stream size : 4.38 GiB (69%)
Writing library : x265 3.6+1-aa7f602f7:[Windows][GCC 13.2.0][64 bit] 10bit
Encoding settings : cpuid=1111039 / frame-threads=4 / numa-pools=16 / wpp / no-pmode / no-pme / no-psnr / no-ssim / log-level=2 / input-csp=1 / input-res=1920x800 / interlace=0 / total-frames=0 / level-idc=52 / high-tier=1 / uhd-bd=0 / ref=6 / no-allow-non-conformance / repeat-headers / annexb / aud / no-eob / no-eos / hrd / info / hash=0 / temporal-layers=0 / open-gop / min-keyint=24 / keyint=240 / gop-lookahead=0 / bframes=8 / b-adapt=2 / b-pyramid / bframe-bias=0 / rc-lookahead=40 / lookahead-slices=4 / scenecut=40 / no-hist-scenecut / radl=0 / no-splice / no-intra-refresh / ctu=64 / min-cu-size=8 / rect / no-amp / max-tu-size=32 / tu-inter-depth=1 / tu-intra-depth=1 / limit-tu=0 / rdoq-level=2 / dynamic-rd=0.00 / no-ssim-rd / signhide / no-tskip / nr-intra=0 / nr-inter=0 / no-constrained-intra / strong-intra-smoothing / max-merge=3 / limit-refs=3 / limit-modes / me=3 / subme=3 / merange=57 / temporal-mvp / no-frame-dup / no-hme / no-weightp / no-weightb / no-analyze-src-pics / deblock=-3:-3 / no-sao / no-sao-non-deblock / rd=4 / selective-sao=0 / no-early-skip / rskip / no-fast-intra / no-tskip-fast / no-cu-lossless / no-b-intra / no-splitrd-skip / rdpenalty=0 / psy-rd=2.00 / psy-rdoq=1.00 / no-rd-refine / no-lossless / cbqpoffs=0 / crqpoffs=0 / rc=abr / bitrate=5000 / qcomp=0.60 / qpstep=4 / stats-write=0 / stats-read=2 / cplxblur=20.0 / qblur=0.5 / vbv-maxrate=240000 / vbv-bufsize=240000 / vbv-init=0.9 / min-vbv-fullness=50.0 / max-vbv-fullness=80.0 / ipratio=1.40 / pbratio=1.30 / aq-mode=4 / aq-strength=1.00 / cutree / zone-count=0 / no-strict-cbr / qg-size=32 / no-rc-grain / qpmax=69 / qpmin=0 / no-const-vbv / sar=1 / overscan=0 / videoformat=5 / range=0 / colorprim=9 / transfer=16 / colormatrix=9 / chromaloc=1 / chromaloc-top=2 / chromaloc-bottom=2 / display-window=0 / master-display=G(13250,34500)B(7500,3000)R(34000,16000)WP(15635,16450)L(40000000,50) / cll=1501,535 / min-luma=0 / max-luma=1023 / log2-max-poc-lsb=8 / vui-timing-info / vui-hrd-info / slices=1 / no-opt-qp-pps / no-opt-ref-list-length-pps / no-multi-pass-opt-rps / scenecut-bias=0.05 / no-opt-cu-delta-qp / no-aq-motion / hdr10 / hdr10-opt / no-dhdr10-opt / no-idr-recovery-sei / analysis-reuse-level=0 / analysis-save-reuse-level=0 / analysis-load-reuse-level=0 / scale-factor=0 / refine-intra=0 / refine-inter=0 / refine-mv=1 / refine-ctu-distortion=0 / no-limit-sao / ctu-info=0 / no-lowpass-dct / refine-analysis-type=0 / copy-pic=1 / max-ausize-factor=1.0 / no-dynamic-refine / no-single-sei / no-hevc-aq / no-svt / no-field / qp-adaptation-range=1.00 / scenecut-aware-qp=0conformance-window-offsets / right=0 / bottom=0 / decoder-max-rate=0 / no-vbv-live-multi-pass / no-mcstf / no-sbrc
Default : Yes
Forced : No
Color range : Limited
Color primaries : BT.2020
Transfer characteristics : PQ
Matrix coefficients : BT.2020 non-constant
Mastering display color primaries : Display P3
Mastering display luminance : min: 0.0050 cd/m2, max: 4000 cd/m2
Maximum Content Light Level : 1501
MaxCLL_Original : 1501 cd/m2
Maximum Frame-Average Light Level : 535
MaxFALL_Original : 535 cd/m2

Audio #1
ID : 2
Format : E-AC-3
Format/Info : Enhanced AC-3
Commercial name : Dolby Digital Plus
Format profile : Blu-ray Disc
Format settings : Dolby Surround EX
Codec ID : A_EAC3
Duration : 2 h 4 min
Bit rate mode : Constant
Bit rate : 1 536 kb/s
Channel(s) : 8 channels
Channel layout : L R C LFE Ls Rs Lb Rb
Sampling rate : 48.0 kHz
Frame rate : 31.250 FPS (1536 SPF)
Compression mode : Lossy
Stream size : 1.34 GiB (21%)
Title : Surround
Language : English
Service kind : Complete Main
Default : Yes
Forced : No

Audio #2
ID : 3
Format : AC-3
Format/Info : Audio Coding 3
Commercial name : Dolby Digital
Codec ID : A_AC3
Duration : 2 h 4 min
Bit rate mode : Constant
Bit rate : 192 kb/s
Channel(s) : 2 channels
Channel layout : L R
Sampling rate : 48.0 kHz
Frame rate : 31.250 FPS (1536 SPF)
Compression mode : Lossy
Stream size : 171 MiB (3%)
Title : Commentary by Director Wolfgang Petersen
Language : English
Service kind : Complete Main
Default : No
Forced : No

Text #1
ID : 4
Format : PGS
Muxing mode : zlib
Codec ID : S_HDMV/PGS
Codec ID/Info : Picture based subtitle format used on BDs/HD-DVDs
Duration : 2 h 2 min
Bit rate : 35.6 kb/s
Frame rate : 0.422 FPS
Count of elements : 3102
Stream size : 31.2 MiB (0%)
Title : English (SDH)
Language : English
Default : Yes
Forced : No

Text #2
ID : 5
Format : PGS
Muxing mode : zlib
Codec ID : S_HDMV/PGS
Codec ID/Info : Picture based subtitle format used on BDs/HD-DVDs
Duration : 1 h 53 min
Bit rate : 30.5 kb/s
Frame rate : 0.351 FPS
Count of elements : 2387
Stream size : 24.8 MiB (0%)
Title : English
Language : English
Default : No
Forced : No

Text #3
ID : 6
Format : PGS
Muxing mode : zlib
Codec ID : S_HDMV/PGS
Codec ID/Info : Picture based subtitle format used on BDs/HD-DVDs
Duration : 1 h 56 min
Bit rate : 22.2 kb/s
Frame rate : 0.331 FPS
Count of elements : 2310
Stream size : 18.5 MiB (0%)
Title : Chinese (Cantonese)
Language : Chinese
Default : No
Forced : No

Text #4
ID : 7
Format : PGS
Muxing mode : zlib
Codec ID : S_HDMV/PGS
Codec ID/Info : Picture based subtitle format used on BDs/HD-DVDs
Duration : 1 h 57 min
Bit rate : 41.6 kb/s
Frame rate : 0.352 FPS
Count of elements : 2488
Stream size : 35.0 MiB (1%)
Title : Chinese (Traditional)
Language : Chinese
Default : No
Forced : No

Text #5
ID : 8
Format : PGS
Muxing mode : zlib
Codec ID : S_HDMV/PGS
Codec ID/Info : Picture based subtitle format used on BDs/HD-DVDs
Duration : 1 h 56 min
Bit rate : 20.8 kb/s
Frame rate : 0.277 FPS
Count of elements : 1934
Stream size : 17.3 MiB (0%)
Title : Croatian
Language : Croatian
Default : No
Forced : No

Text #6
ID : 9
Format : PGS
Muxing mode : zlib
Codec ID : S_HDMV/PGS
Codec ID/Info : Picture based subtitle format used on BDs/HD-DVDs
Duration : 1 h 54 min
Bit rate : 21.9 kb/s
Frame rate : 0.297 FPS
Count of elements : 2038
Stream size : 17.9 MiB (0%)
Title : Czech
Language : Czech
Default : No
Forced : No

Text #7
ID : 10
Format : PGS
Muxing mode : zlib
Codec ID : S_HDMV/PGS
Codec ID/Info : Picture based subtitle format used on BDs/HD-DVDs
Duration : 1 h 54 min
Bit rate : 38.2 kb/s
Frame rate : 0.257 FPS
Count of elements : 1764
Stream size : 31.2 MiB (0%)
Title : Danish
Language : Danish
Default : No
Forced : No

Text #8
ID : 11
Format : PGS
Muxing mode : zlib
Codec ID : S_HDMV/PGS
Codec ID/Info : Picture based subtitle format used on BDs/HD-DVDs
Duration : 1 h 54 min
Bit rate : 32.0 kb/s
Frame rate : 0.223 FPS
Count of elements : 1530
Stream size : 26.1 MiB (0%)
Title : Dutch
Language : Dutch
Default : No
Forced : No

Text #9
ID : 12
Format : PGS
Muxing mode : zlib
Codec ID : S_HDMV/PGS
Codec ID/Info : Picture based subtitle format used on BDs/HD-DVDs
Duration : 1 h 54 min
Bit rate : 39.8 kb/s
Frame rate : 0.253 FPS
Count of elements : 1732
Stream size : 32.5 MiB (0%)
Title : Finnish
Language : Finnish
Default : No
Forced : No

Text #10
ID : 13
Format : PGS
Muxing mode : zlib
Codec ID : S_HDMV/PGS
Codec ID/Info : Picture based subtitle format used on BDs/HD-DVDs
Duration : 1 h 54 min
Bit rate : 30.0 kb/s
Frame rate : 0.357 FPS
Count of elements : 2445
Stream size : 24.5 MiB (0%)
Title : French (Canadian)
Language : French
Default : No
Forced : No

Text #11
ID : 14
Format : PGS
Muxing mode : zlib
Codec ID : S_HDMV/PGS
Codec ID/Info : Picture based subtitle format used on BDs/HD-DVDs
Duration : 1 h 54 min
Bit rate : 35.2 kb/s
Frame rate : 0.258 FPS
Count of elements : 1770
Stream size : 28.8 MiB (0%)
Title : French (Parisian)
Language : French
Default : No
Forced : No

Text #12
ID : 15
Format : PGS
Muxing mode : zlib
Codec ID : S_HDMV/PGS
Codec ID/Info : Picture based subtitle format used on BDs/HD-DVDs
Duration : 1 h 54 min
Bit rate : 38.5 kb/s
Frame rate : 0.303 FPS
Count of elements : 2070
Stream size : 31.4 MiB (0%)
Title : German
Language : German
Default : No
Forced : No

Text #13
ID : 16
Format : PGS
Muxing mode : zlib
Codec ID : S_HDMV/PGS
Codec ID/Info : Picture based subtitle format used on BDs/HD-DVDs
Duration : 1 h 56 min
Bit rate : 23.2 kb/s
Frame rate : 0.289 FPS
Count of elements : 2020
Stream size : 19.3 MiB (0%)
Title : Hungarian
Language : Hungarian
Default : No
Forced : No

Text #14
ID : 17
Format : PGS
Muxing mode : zlib
Codec ID : S_HDMV/PGS
Codec ID/Info : Picture based subtitle format used on BDs/HD-DVDs
Duration : 1 h 54 min
Bit rate : 40.7 kb/s
Frame rate : 0.342 FPS
Count of elements : 2344
Stream size : 33.2 MiB (1%)
Title : Icelandic
Language : Icelandic
Default : No
Forced : No

Text #15
ID : 18
Format : PGS
Muxing mode : zlib
Codec ID : S_HDMV/PGS
Codec ID/Info : Picture based subtitle format used on BDs/HD-DVDs
Duration : 1 h 54 min
Bit rate : 45.9 kb/s
Frame rate : 0.326 FPS
Count of elements : 2238
Stream size : 37.5 MiB (1%)
Title : Indonesian
Language : Indonesian
Default : No
Forced : No

Text #16
ID : 19
Format : PGS
Muxing mode : zlib
Codec ID : S_HDMV/PGS
Codec ID/Info : Picture based subtitle format used on BDs/HD-DVDs
Duration : 1 h 54 min
Bit rate : 39.9 kb/s
Frame rate : 0.347 FPS
Count of elements : 2376
Stream size : 32.6 MiB (1%)
Title : Italian
Language : Italian
Default : No
Forced : No

Text #17
ID : 20
Format : PGS
Muxing mode : zlib
Codec ID : S_HDMV/PGS
Codec ID/Info : Picture based subtitle format used on BDs/HD-DVDs
Duration : 1 h 54 min
Bit rate : 27.8 kb/s
Frame rate : 0.353 FPS
Count of elements : 2418
Stream size : 22.7 MiB (0%)
Title : Japanese
Language : Japanese
Default : No
Forced : No

Text #18
ID : 21
Format : PGS
Muxing mode : zlib
Codec ID : S_HDMV/PGS
Codec ID/Info : Picture based subtitle format used on BDs/HD-DVDs
Duration : 1 h 54 min
Bit rate : 39.8 kb/s
Frame rate : 0.370 FPS
Count of elements : 2539
Stream size : 32.5 MiB (0%)
Title : Korean
Language : Korean
Default : No
Forced : No

Text #19
ID : 22
Format : PGS
Muxing mode : zlib
Codec ID : S_HDMV/PGS
Codec ID/Info : Picture based subtitle format used on BDs/HD-DVDs
Duration : 1 h 54 min
Bit rate : 52.8 kb/s
Frame rate : 0.388 FPS
Count of elements : 2659
Stream size : 43.1 MiB (1%)
Title : Malay
Language : Malay
Default : No
Forced : No

Text #20
ID : 23
Format : PGS
Muxing mode : zlib
Codec ID : S_HDMV/PGS
Codec ID/Info : Picture based subtitle format used on BDs/HD-DVDs
Duration : 1 h 54 min
Bit rate : 34.3 kb/s
Frame rate : 0.247 FPS
Count of elements : 1690
Stream size : 28.0 MiB (0%)
Title : Norwegian
Language : Norwegian
Default : No
Forced : No

Text #21
ID : 24
Format : PGS
Muxing mode : zlib
Codec ID : S_HDMV/PGS
Codec ID/Info : Picture based subtitle format used on BDs/HD-DVDs
Duration : 1 h 54 min
Bit rate : 44.8 kb/s
Frame rate : 0.358 FPS
Count of elements : 2452
Stream size : 36.6 MiB (1%)
Title : Polish
Language : Polish
Default : No
Forced : No

Text #22
ID : 25
Format : PGS
Muxing mode : zlib
Codec ID : S_HDMV/PGS
Codec ID/Info : Picture based subtitle format used on BDs/HD-DVDs
Duration : 1 h 56 min
Bit rate : 39.1 kb/s
Frame rate : 0.327 FPS
Count of elements : 2280
Stream size : 32.5 MiB (0%)
Title : Portuguese (Brazilian)
Language : Portuguese
Default : No
Forced : No

Text #23
ID : 26
Format : PGS
Muxing mode : zlib
Codec ID : S_HDMV/PGS
Codec ID/Info : Picture based subtitle format used on BDs/HD-DVDs
Duration : 1 h 54 min
Bit rate : 45.2 kb/s
Frame rate : 0.358 FPS
Count of elements : 2452
Stream size : 36.9 MiB (1%)
Title : Romanian
Language : Romanian
Default : No
Forced : No

Text #24
ID : 27
Format : PGS
Muxing mode : zlib
Codec ID : S_HDMV/PGS
Codec ID/Info : Picture based subtitle format used on BDs/HD-DVDs
Duration : 1 h 56 min
Bit rate : 26.5 kb/s
Frame rate : 0.351 FPS
Count of elements : 2454
Stream size : 22.1 MiB (0%)
Title : Russian
Language : Russian
Default : No
Forced : No

Text #25
ID : 28
Format : PGS
Muxing mode : zlib
Codec ID : S_HDMV/PGS
Codec ID/Info : Picture based subtitle format used on BDs/HD-DVDs
Duration : 1 h 56 min
Bit rate : 41.4 kb/s
Frame rate : 0.314 FPS
Count of elements : 2192
Stream size : 34.4 MiB (1%)
Title : Serbian
Language : Serbian
Default : No
Forced : No

Text #26
ID : 29
Format : PGS
Muxing mode : zlib
Codec ID : S_HDMV/PGS
Codec ID/Info : Picture based subtitle format used on BDs/HD-DVDs
Duration : 1 h 56 min
Bit rate : 17.4 kb/s
Frame rate : 0.245 FPS
Count of elements : 1716
Stream size : 14.5 MiB (0%)
Title : Slovenian
Language : Slovenian
Default : No
Forced : No

Text #27
ID : 30
Format : PGS
Muxing mode : zlib
Codec ID : S_HDMV/PGS
Codec ID/Info : Picture based subtitle format used on BDs/HD-DVDs
Duration : 1 h 56 min
Bit rate : 40.3 kb/s
Frame rate : 0.360 FPS
Count of elements : 2516
Stream size : 33.6 MiB (1%)
Title : Spanish (Castilian)
Language : Spanish
Default : No
Forced : No

Text #28
ID : 31
Format : PGS
Muxing mode : zlib
Codec ID : S_HDMV/PGS
Codec ID/Info : Picture based subtitle format used on BDs/HD-DVDs
Duration : 1 h 56 min
Bit rate : 27.9 kb/s
Frame rate : 0.350 FPS
Count of elements : 2447
Stream size : 23.2 MiB (0%)
Title : Spanish (Latin American)
Language : Spanish
Default : No
Forced : No

Text #29
ID : 32
Format : PGS
Muxing mode : zlib
Codec ID : S_HDMV/PGS
Codec ID/Info : Picture based subtitle format used on BDs/HD-DVDs
Duration : 1 h 54 min
Bit rate : 34.7 kb/s
Frame rate : 0.247 FPS
Count of elements : 1692
Stream size : 28.3 MiB (0%)
Title : Swedish
Language : Swedish
Default : No
Forced : No

Text #30
ID : 33
Format : PGS
Muxing mode : zlib
Codec ID : S_HDMV/PGS
Codec ID/Info : Picture based subtitle format used on BDs/HD-DVDs
Duration : 1 h 54 min
Bit rate : 34.9 kb/s
Frame rate : 0.355 FPS
Count of elements : 2436
Stream size : 28.6 MiB (0%)
Title : Thai
Language : Thai
Default : No
Forced : No

Text #31
ID : 34
Format : PGS
Muxing mode : zlib
Codec ID : S_HDMV/PGS
Codec ID/Info : Picture based subtitle format used on BDs/HD-DVDs
Duration : 1 h 56 min
Bit rate : 48.9 kb/s
Frame rate : 0.351 FPS
Count of elements : 2450
Stream size : 40.7 MiB (1%)
Title : Turkish
Language : Turkish
Default : No
Forced : No

Text #32
ID : 35
Format : PGS
Muxing mode : zlib
Codec ID : S_HDMV/PGS
Codec ID/Info : Picture based subtitle format used on BDs/HD-DVDs
Duration : 1 h 56 min
Bit rate : 28.8 kb/s
Frame rate : 0.331 FPS
Count of elements : 2314
Stream size : 24.0 MiB (0%)
Title : Vietnamese
Language : Vietnamese
Default : No
Forced : No

Text #33
ID : 36
Format : PGS
Muxing mode : zlib
Codec ID : S_HDMV/PGS
Codec ID/Info : Picture based subtitle format used on BDs/HD-DVDs
Duration : 1 h 58 min
Bit rate : 73.4 kb/s
Frame rate : 0.666 FPS
Count of elements : 4723
Stream size : 62.1 MiB (1%)
Title : English (SDH) (Commentary)
Language : English
Default : No
Forced : No

Text #34
ID : 37
Format : PGS
Muxing mode : zlib
Codec ID : S_HDMV/PGS
Codec ID/Info : Picture based subtitle format used on BDs/HD-DVDs
Duration : 1 h 54 min
Bit rate : 19.8 kb/s
Frame rate : 0.076 FPS
Count of elements : 526
Stream size : 16.2 MiB (0%)
Title : English (Trivia)
Language : English
Default : No
Forced : No

Text #35
ID : 38
Format : PGS
Muxing mode : zlib
Codec ID : S_HDMV/PGS
Codec ID/Info : Picture based subtitle format used on BDs/HD-DVDs
Duration : 1 h 54 min
Bit rate : 20.5 kb/s
Frame rate : 0.076 FPS
Count of elements : 526
Stream size : 16.8 MiB (0%)
Title : Chinese (Traditional) (Trivia)
Language : Chinese
Default : No
Forced : No

Text #36
ID : 39
Format : PGS
Muxing mode : zlib
Codec ID : S_HDMV/PGS
Codec ID/Info : Picture based subtitle format used on BDs/HD-DVDs
Duration : 1 h 54 min
Bit rate : 20.8 kb/s
Frame rate : 0.076 FPS
Count of elements : 526
Stream size : 17.0 MiB (0%)
Title : Danish (Trivia)
Language : Danish
Default : No
Forced : No

Text #37
ID : 40
Format : PGS
Muxing mode : zlib
Codec ID : S_HDMV/PGS
Codec ID/Info : Picture based subtitle format used on BDs/HD-DVDs
Duration : 1 h 54 min
Bit rate : 20.4 kb/s
Frame rate : 0.076 FPS
Count of elements : 526
Stream size : 16.7 MiB (0%)
Title : Dutch (Trivia)
Language : Dutch
Default : No
Forced : No

Text #38
ID : 41
Format : PGS
Muxing mode : zlib
Codec ID : S_HDMV/PGS
Codec ID/Info : Picture based subtitle format used on BDs/HD-DVDs
Duration : 1 h 54 min
Bit rate : 20.3 kb/s
Frame rate : 0.076 FPS
Count of elements : 526
Stream size : 16.6 MiB (0%)
Title : Finnish (Trivia)
Language : Finnish
Default : No
Forced : No

Text #39
ID : 42
Format : PGS
Muxing mode : zlib
Codec ID : S_HDMV/PGS
Codec ID/Info : Picture based subtitle format used on BDs/HD-DVDs
Duration : 1 h 54 min
Bit rate : 21.7 kb/s
Frame rate : 0.076 FPS
Count of elements : 526
Stream size : 17.8 MiB (0%)
Title : French (Trivia)
Language : French
Default : No
Forced : No

Text #40
ID : 43
Format : PGS
Muxing mode : zlib
Codec ID : S_HDMV/PGS
Codec ID/Info : Picture based subtitle format used on BDs/HD-DVDs
Duration : 1 h 54 min
Bit rate : 21.4 kb/s
Frame rate : 0.076 FPS
Count of elements : 526
Stream size : 17.6 MiB (0%)
Title : German (Trivia)
Language : German
Default : No
Forced : No

Text #41
ID : 44
Format : PGS
Muxing mode : zlib
Codec ID : S_HDMV/PGS
Codec ID/Info : Picture based subtitle format used on BDs/HD-DVDs
Duration : 1 h 54 min
Bit rate : 22.2 kb/s
Frame rate : 0.076 FPS
Count of elements : 526
Stream size : 18.2 MiB (0%)
Title : Icelandic (Trivia)
Language : Icelandic
Default : No
Forced : No

Text #42
ID : 45
Format : PGS
Muxing mode : zlib
Codec ID : S_HDMV/PGS
Codec ID/Info : Picture based subtitle format used on BDs/HD-DVDs
Duration : 1 h 54 min
Bit rate : 20.5 kb/s
Frame rate : 0.076 FPS
Count of elements : 526
Stream size : 16.8 MiB (0%)
Title : Italian (Trivia)
Language : Italian
Default : No
Forced : No

Text #43
ID : 46
Format : PGS
Muxing mode : zlib
Codec ID : S_HDMV/PGS
Codec ID/Info : Picture based subtitle format used on BDs/HD-DVDs
Duration : 1 h 54 min
Bit rate : 8 334 b/s
Frame rate : 0.076 FPS
Count of elements : 526
Stream size : 6.83 MiB (0%)
Title : Japanese (Trivia)
Language : Japanese
Default : No
Forced : No

Text #44
ID : 47
Format : PGS
Muxing mode : zlib
Codec ID : S_HDMV/PGS
Codec ID/Info : Picture based subtitle format used on BDs/HD-DVDs
Duration : 1 h 54 min
Bit rate : 20.1 kb/s
Frame rate : 0.086 FPS
Count of elements : 592
Stream size : 16.5 MiB (0%)
Title : Korean (Trivia)
Language : Korean
Default : No
Forced : No

Text #45
ID : 48
Format : PGS
Muxing mode : zlib
Codec ID : S_HDMV/PGS
Codec ID/Info : Picture based subtitle format used on BDs/HD-DVDs
Duration : 1 h 54 min
Bit rate : 19.5 kb/s
Frame rate : 0.076 FPS
Count of elements : 526
Stream size : 15.9 MiB (0%)
Title : Norwegian (Trivia)
Language : Norwegian
Default : No
Forced : No

Text #46
ID : 49
Format : PGS
Muxing mode : zlib
Codec ID : S_HDMV/PGS
Codec ID/Info : Picture based subtitle format used on BDs/HD-DVDs
Duration : 1 h 54 min
Bit rate : 20.7 kb/s
Frame rate : 0.076 FPS
Count of elements : 526
Stream size : 16.9 MiB (0%)
Title : Portuguese (Brazilian) (Trivia)
Language : Portuguese
Default : No
Forced : No

Text #47
ID : 50
Format : PGS
Muxing mode : zlib
Codec ID : S_HDMV/PGS
Codec ID/Info : Picture based subtitle format used on BDs/HD-DVDs
Duration : 1 h 54 min
Bit rate : 22.9 kb/s
Frame rate : 0.077 FPS
Count of elements : 530
Stream size : 18.8 MiB (0%)
Title : Spanish (Castilian) (Trivia)
Language : Spanish
Default : No
Forced : No

Text #48
ID : 51
Format : PGS
Muxing mode : zlib
Codec ID : S_HDMV/PGS
Codec ID/Info : Picture based subtitle format used on BDs/HD-DVDs
Duration : 1 h 54 min
Bit rate : 21.0 kb/s
Frame rate : 0.076 FPS
Count of elements : 526
Stream size : 17.2 MiB (0%)
Title : Spanish (Latin American) (Trivia)
Language : Spanish
Default : No
Forced : No

Text #49
ID : 52
Format : PGS
Muxing mode : zlib
Codec ID : S_HDMV/PGS
Codec ID/Info : Picture based subtitle format used on BDs/HD-DVDs
Duration : 1 h 54 min
Bit rate : 20.1 kb/s
Frame rate : 0.076 FPS
Count of elements : 526
Stream size : 16.5 MiB (0%)
Title : Swedish (Trivia)
Language : Swedish
Default : No
Forced : No

Text #50
ID : 53
Format : UTF-8
Codec ID : S_TEXT/UTF8
Codec ID/Info : UTF-8 Plain Text
Duration : 1 h 53 min
Bit rate : 54 b/s
Frame rate : 0.175 FPS
Count of elements : 1193
Stream size : 45.1 KiB (0%)
Language : English
Default : No
Forced : No

Text #51
ID : 54
Format : UTF-8
Codec ID : S_TEXT/UTF8
Codec ID/Info : UTF-8 Plain Text
Duration : 2 h 2 min
Bit rate : 62 b/s
Frame rate : 0.211 FPS
Count of elements : 1550
Stream size : 55.9 KiB (0%)
Title : SDH
Language : English
Default : No
Forced : No

Text #52
ID : 55
Format : UTF-8
Codec ID : S_TEXT/UTF8
Codec ID/Info : UTF-8 Plain Text
Duration : 1 h 58 min
Bit rate : 121 b/s
Frame rate : 0.332 FPS
Count of elements : 2355
Stream size : 105 KiB (0%)
Title : Commentary by director Wolfgang Petersen and moderator Michael Coleman
Language : English
Default : No
Forced : No

Menu
00:00:00.000 : Opening Credits
00:04:16.423 : Kazakhstan
00:06:03.113 : Three Weeks Later
00:08:47.277 : "e;Welcome to AFO"e;
00:14:27.867 : The First Family
00:21:13.939 : Code Red
00:24:46.694 : VP Bennett
00:25:37.411 : Landing Aborted
00:32:56.183 : An Empty Pod
00:35:01.057 : Ivan Calls Kathryn
00:39:47.552 : Marshall Plan
00:43:01.996 : Element of Surprise
00:49:27.548 : "e;It's Time"e;
00:54:42.905 : Outside Call
00:57:50.300 : Firing on AFO
01:00:23.578 : Updating Marshall
01:04:00.920 : Melanie Mitchell
01:08:45.038 : Dumping Fuel
01:10:58.838 : Firefight
01:12:14.455 : "e;We Need Fuel"e;
01:13:34.619 : Freeing Hostages
01:15:26.564 : Sending a Fax
01:20:35.664 : Refueling Plane
01:22:44.418 : Parachute Drop
01:23:35.177 : Tanker Explodes
01:25:22.159 : Presidential Hostage
01:26:32.396 : Marshall Meets Ivan
01:31:56.386 : "e;Sign It"e;
01:33:02.660 : Releasing Radek
01:35:53.122 : Marshall Cuts Loose
01:38:08.174 : "e;Get Off My Plane!"e;
01:41:58.821 : Marshall Takes Over
01:44:31.432 : Under Attack
01:50:07.267 : Mid-Air Rescue
01:58:30.812 : End Credits

Air.Force.One.1997.UHD.BluRay.2160p.TrueHD.Atmos.7.1.DV.HEVC.REMUX-FraMeSToR

Files