Blast from the Past (1999) (1080p BluRay x265 10-bit SDR DDP 5 1 English-DarQ)

A romantic comedy about a naive man who comes out into the world after being in a nuclear fallout shelter for 35 years.

Year: 1999
Duration: 112 min
Release date: Friday 12th February 1999
Genre: Comedy, Drama, Romance

Rating

6.4/10
(27355 Votes)

0

Your Rating

Stars:
Brendan Fraser, Alicia Silverstone, Christopher Walken, Sissy Spacek

Blast from the Past (1999)

General
Unique ID : 328054974119747111261120788095790272394 (0xF6CD16FD8AB00E6CAB2385A76A00CF8A)
Complete name : Blast from the Past (1999) (1080p BluRay x265 10-bit SDR DDP 5.1 English-DarQ).mkv
Format : Matroska
Format version : Version 4
File size : 4.48 GiB
Duration : 1 h 52 min
Overall bit rate : 5 722 kb/s
Encoded date : UTC 2024-07-09 07:47:27
Writing application : mkvmerge v85.0 ('Shame For You') 64-bit
Writing library : libebml v1.4.5 + libmatroska v1.7.1

Video
ID : 1
Format : HEVC
Format/Info : High Efficiency Video Coding
Format profile : Main 10@L4@Main
Codec ID : V_MPEGH/ISO/HEVC
Duration : 1 h 52 min
Bit rate : 4 952 kb/s
Width : 1 920 pixels
Height : 800 pixels
Display aspect ratio : 2.40:1
Frame rate mode : Constant
Frame rate : 23.976 (24000/1001) FPS
Color space : YUV
Chroma subsampling : 4:2:0
Bit depth : 10 bits
Bits/(Pixel*Frame) : 0.134
Stream size : 3.88 GiB (87%)
Writing library : x265 3.6+13+1-726aec126:[Windows][MSVC 1939][64 bit] 10bit
Encoding settings : cpuid=1111039 / frame-threads=3 / numa-pools=10 / wpp / no-pmode / no-pme / no-psnr / no-ssim / log-level=2 / input-csp=1 / input-res=1920x800 / interlace=0 / total-frames=161270 / level-idc=0 / high-tier=1 / uhd-bd=0 / ref=6 / no-allow-non-conformance / no-repeat-headers / annexb / no-aud / no-eob / no-eos / no-hrd / info / hash=0 / temporal-layers=0 / open-gop / min-keyint=23 / keyint=250 / gop-lookahead=0 / bframes=4 / b-adapt=2 / b-pyramid / bframe-bias=0 / rc-lookahead=25 / lookahead-slices=4 / scenecut=40 / no-hist-scenecut / radl=0 / no-splice / no-intra-refresh / ctu=64 / min-cu-size=8 / rect / no-amp / max-tu-size=32 / tu-inter-depth=1 / tu-intra-depth=1 / limit-tu=0 / rdoq-level=2 / dynamic-rd=0.00 / no-ssim-rd / signhide / no-tskip / nr-intra=0 / nr-inter=0 / no-constrained-intra / strong-intra-smoothing / max-merge=3 / limit-refs=3 / limit-modes / me=3 / subme=5 / merange=57 / temporal-mvp / no-frame-dup / no-hme / weightp / no-weightb / no-analyze-src-pics / deblock=0:0 / sao / no-sao-non-deblock / rd=4 / selective-sao=4 / no-early-skip / rskip / no-fast-intra / no-tskip-fast / no-cu-lossless / no-b-intra / no-splitrd-skip / rdpenalty=0 / psy-rd=1.80 / psy-rdoq=1.00 / no-rd-refine / no-lossless / cbqpoffs=0 / crqpoffs=0 / rc=abr / bitrate=5000 / qcomp=0.60 / qpstep=4 / stats-write=0 / stats-read=0 / ipratio=1.40 / pbratio=1.30 / aq-mode=3 / aq-strength=0.60 / aq-bias-strength=1.00 / cutree / zone-count=0 / no-strict-cbr / qg-size=32 / no-rc-grain / qpmax=69 / qpmin=0 / no-const-vbv / sar=0 / overscan=0 / videoformat=5 / range=0 / colorprim=2 / transfer=2 / colormatrix=2 / chromaloc=0 / display-window=0 / cll=0,0 / min-luma=0 / max-luma=1023 / log2-max-poc-lsb=8 / vui-timing-info / vui-hrd-info / slices=1 / no-opt-qp-pps / no-opt-ref-list-length-pps / no-multi-pass-opt-rps / scenecut-bias=0.05 / no-opt-cu-delta-qp / no-aq-motion / no-hdr10 / no-hdr10-opt / no-dhdr10-opt / no-idr-recovery-sei / analysis-reuse-level=0 / analysis-save-reuse-level=0 / analysis-load-reuse-level=0 / scale-factor=0 / refine-intra=0 / refine-inter=0 / refine-mv=1 / refine-ctu-distortion=0 / no-limit-sao / ctu-info=0 / no-lowpass-dct / refine-analysis-type=0 / copy-pic=1 / max-ausize-factor=1.0 / no-dynamic-refine / no-single-sei / no-hevc-aq / no-svt / no-field / qp-adaptation-range=1.00 / scenecut-aware-qp=0 / conformance-window-offsets / right=0 / bottom=0 / decoder-max-rate=0 / no-vbv-live-multi-pass / no-mcstf / no-sbrc
Default : Yes
Forced : No

Audio
ID : 2
Format : E-AC-3
Format/Info : Enhanced AC-3
Commercial name : Dolby Digital Plus
Codec ID : A_EAC3
Duration : 1 h 52 min
Bit rate mode : Constant
Bit rate : 768 kb/s
Channel(s) : 6 channels
Channel layout : L R C LFE Ls Rs
Sampling rate : 48.0 kHz
Frame rate : 31.250 FPS (1536 SPF)
Compression mode : Lossy
Stream size : 616 MiB (13%)
Language : English
Service kind : Complete Main
Default : No
Forced : No

Text #1
ID : 3
Format : UTF-8
Codec ID : S_TEXT/UTF8
Codec ID/Info : UTF-8 Plain Text
Duration : 1 h 50 min
Bit rate : 73 b/s
Count of elements : 1674
Stream size : 59.5 KiB (0%)
Title : SDH
Language : English
Default : Yes
Forced : No

Text #2
ID : 4
Format : UTF-8
Codec ID : S_TEXT/UTF8
Codec ID/Info : UTF-8 Plain Text
Duration : 1 h 51 min
Bit rate : 65 b/s
Count of elements : 1504
Stream size : 53.6 KiB (0%)
Language : French
Default : Yes
Forced : No

Text #3
ID : 5
Format : UTF-8
Codec ID : S_TEXT/UTF8
Codec ID/Info : UTF-8 Plain Text
Duration : 1 h 46 min
Bit rate : 48 b/s
Count of elements : 1623
Stream size : 38.1 KiB (0%)
Language : Japanese
Default : Yes
Forced : No

Text #4
ID : 6
Format : UTF-8
Codec ID : S_TEXT/UTF8
Codec ID/Info : UTF-8 Plain Text
Duration : 1 h 51 min
Bit rate : 63 b/s
Count of elements : 1532
Stream size : 52.2 KiB (0%)
Title : Brazillian Portuguese
Language : Portuguese
Default : Yes
Forced : No

Text #5
ID : 7
Format : UTF-8
Codec ID : S_TEXT/UTF8
Codec ID/Info : UTF-8 Plain Text
Duration : 1 h 51 min
Bit rate : 67 b/s
Count of elements : 1531
Stream size : 55.3 KiB (0%)
Title : Castilian
Language : Spanish
Default : Yes
Forced : No

Text #6
ID : 8
Format : UTF-8
Codec ID : S_TEXT/UTF8
Codec ID/Info : UTF-8 Plain Text
Duration : 1 h 51 min
Bit rate : 64 b/s
Count of elements : 1530
Stream size : 52.8 KiB (0%)
Title : Latin American
Language : Spanish
Default : Yes
Forced : No

Menu
00:00:00.000 : en:The Party
00:03:39.761 : en:It's Time
00:08:09.113 : en:Going Under
00:12:36.255 : en:35 Year Lock
00:20:34.942 : en:Happy Birthday
00:23:26.446 : en:Just Open the Door and Go Up
00:25:31.071 : en:I Come in Peace
00:29:38.693 : en:Beware the Adult Bookstore
00:34:34.989 : en:Adam Meets the Mutants
00:39:07.178 : en:Grocery Shopping
00:41:17.391 : en:Adam Encounters Eve
00:47:15.249 : en:Welcome to the Holiday Inn
00:52:50.375 : en:Eve For Hire
00:53:59.569 : en:Two Weeks to a Non-Mutant Wife
00:57:31.364 : en:Brining Adam Home
01:03:00.777 : en:Getting Up-to-Date
01:05:08.029 : en:You Have to See it to Understand
01:09:28.539 : en:Wife Hunting
01:19:38.148 : en:Adam Tells the Scary Truth
01:28:18.584 : en:Off to the Funny Farm
01:33:00.241 : en:Searching For Mr. Poute
01:40:17.553 : en:Rebuilding
01:43:10.601 : en:The New House
01:47:27.566 : en:Credits

Report created by : MediaInfoLib - v21.09

Files