The 3 Worlds of Gulliver (1960) (1080p BluRay x265 10-bit SDR OPUS 2 0 English-DarQ)

Doctor Gulliver is poor, so nothing - not even his charming fiancée Elisabeth - keeps him in the town he lives...

Year: 1960
Duration: 100 min
Genre: Animation, Adventure, Family, Fantasy

Rating

6.3/10
(797 Votes)

0

Your Rating

Stars:
Kerwin Mathews, Jo Morrow, June Thorburn, Lee Patterson

The 3 Worlds of Gulliver (1960)

General
Unique ID : 321266303250495950516115591921355533586 (0xF1B1A3ACC97FFC819A91E74D9D9D2D12)
Complete name : The 3 Worlds of Gulliver (1960) (1080p BluRay x265 10-bit SDR OPUS 2.0 English-DarQ).mkv
Format : Matroska
Format version : Version 4
File size : 3.71 GiB
Duration : 1 h 38 min
Overall bit rate : 5 388 kb/s
Encoded date : UTC 2024-07-09 08:54:57
Writing application : mkvmerge v85.0 ('Shame For You') 64-bit
Writing library : libebml v1.4.5 + libmatroska v1.7.1

Video
ID : 1
Format : HEVC
Format/Info : High Efficiency Video Coding
Format profile : Main 10@L5@Main
Codec ID : V_MPEGH/ISO/HEVC
Duration : 1 h 38 min
Bit rate : 4 881 kb/s
Width : 1 920 pixels
Height : 1 080 pixels
Display aspect ratio : 16:9
Frame rate mode : Constant
Frame rate : 23.976 (24000/1001) FPS
Color space : YUV
Chroma subsampling : 4:2:0
Bit depth : 10 bits
Bits/(Pixel*Frame) : 0.098
Stream size : 3.36 GiB (91%)
Writing library : x265 3.6+13+1-726aec126:[Windows][MSVC 1939][64 bit] 10bit
Encoding settings : cpuid=1111039 / frame-threads=3 / numa-pools=12 / wpp / no-pmode / no-pme / no-psnr / no-ssim / log-level=2 / input-csp=1 / input-res=1920x1080 / interlace=0 / total-frames=141870 / level-idc=0 / high-tier=1 / uhd-bd=0 / ref=6 / no-allow-non-conformance / no-repeat-headers / annexb / no-aud / no-eob / no-eos / no-hrd / info / hash=0 / temporal-layers=0 / open-gop / min-keyint=23 / keyint=250 / gop-lookahead=0 / bframes=4 / b-adapt=2 / b-pyramid / bframe-bias=0 / rc-lookahead=25 / lookahead-slices=4 / scenecut=40 / no-hist-scenecut / radl=0 / no-splice / no-intra-refresh / ctu=64 / min-cu-size=8 / rect / no-amp / max-tu-size=32 / tu-inter-depth=1 / tu-intra-depth=1 / limit-tu=0 / rdoq-level=2 / dynamic-rd=0.00 / no-ssim-rd / signhide / no-tskip / nr-intra=0 / nr-inter=0 / no-constrained-intra / strong-intra-smoothing / max-merge=3 / limit-refs=3 / limit-modes / me=3 / subme=5 / merange=57 / temporal-mvp / no-frame-dup / no-hme / weightp / no-weightb / no-analyze-src-pics / deblock=0:0 / sao / no-sao-non-deblock / rd=4 / selective-sao=4 / no-early-skip / rskip / no-fast-intra / no-tskip-fast / no-cu-lossless / no-b-intra / no-splitrd-skip / rdpenalty=0 / psy-rd=1.75 / psy-rdoq=1.00 / no-rd-refine / no-lossless / cbqpoffs=0 / crqpoffs=0 / rc=crf / crf=16.0 / qcomp=0.60 / qpstep=4 / stats-write=0 / stats-read=0 / vbv-maxrate=5000 / vbv-bufsize=4500 / vbv-init=0.9 / min-vbv-fullness=50.0 / max-vbv-fullness=80.0 / crf-max=0.0 / crf-min=0.0 / ipratio=1.40 / pbratio=1.30 / aq-mode=3 / aq-strength=0.50 / aq-bias-strength=1.00 / cutree / zone-count=0 / no-strict-cbr / qg-size=32 / no-rc-grain / qpmax=69 / qpmin=0 / no-const-vbv / sar=0 / overscan=0 / videoformat=5 / range=0 / colorprim=2 / transfer=2 / colormatrix=2 / chromaloc=0 / display-window=0 / cll=0,0 / min-luma=0 / max-luma=1023 / log2-max-poc-lsb=8 / vui-timing-info / vui-hrd-info / slices=1 / no-opt-qp-pps / no-opt-ref-list-length-pps / no-multi-pass-opt-rps / scenecut-bias=0.05 / no-opt-cu-delta-qp / no-aq-motion / no-hdr10 / no-hdr10-opt / no-dhdr10-opt / no-idr-recovery-sei / analysis-reuse-level=0 / analysis-save-reuse-level=0 / analysis-load-reuse-level=0 / scale-factor=0 / refine-intra=0 / refine-inter=0 / refine-mv=1 / refine-ctu-distortion=0 / no-limit-sao / ctu-info=0 / no-lowpass-dct / refine-analysis-type=0 / copy-pic=1 / max-ausize-factor=1.0 / no-dynamic-refine / no-single-sei / no-hevc-aq / no-svt / no-field / qp-adaptation-range=1.00 / scenecut-aware-qp=0 / conformance-window-offsets / right=0 / bottom=0 / decoder-max-rate=0 / no-vbv-live-multi-pass / no-mcstf / no-sbrc
Default : Yes
Forced : No

Audio #1
ID : 2
Format : Opus
Codec ID : A_OPUS
Duration : 1 h 38 min
Bit rate : 219 kb/s
Channel(s) : 2 channels
Channel layout : L R
Sampling rate : 48.0 kHz
Frame rate : 50.000 FPS (960 SPF)
Compression mode : Lossy
Stream size : 154 MiB (4%)
Writing library : Lavc60.36.100 libopus
Language : English
Default : Yes
Forced : No

Audio #2
ID : 3
Format : Opus
Codec ID : A_OPUS
Duration : 1 h 38 min
Bit rate : 285 kb/s
Channel(s) : 2 channels
Channel layout : L R
Sampling rate : 48.0 kHz
Frame rate : 50.000 FPS (960 SPF)
Compression mode : Lossy
Stream size : 201 MiB (5%)
Writing library : Lavc60.36.100 libopus
Language : English
Default : No
Forced : No

Text
ID : 4
Format : UTF-8
Codec ID : S_TEXT/UTF8
Codec ID/Info : UTF-8 Plain Text
Duration : 1 h 35 min
Bit rate : 65 b/s
Count of elements : 1194
Stream size : 46.0 KiB (0%)
Language : English
Default : Yes
Forced : No

Menu
00:00:00.000 : en:Chapter 1
00:04:49.414 : en:Chapter 2
00:07:46.466 : en:Chapter 3
00:12:23.743 : en:Chapter 4
00:15:03.402 : en:Chapter 5
00:19:40.388 : en:Chapter 6
00:24:51.740 : en:Chapter 7
00:29:06.495 : en:Chapter 8
00:33:08.028 : en:Chapter 9
00:36:31.314 : en:Chapter 10
00:42:11.028 : en:Chapter 11
00:44:40.428 : en:Chapter 12
00:48:40.793 : en:Chapter 13
00:53:42.845 : en:Chapter 14
00:56:13.704 : en:Chapter 15
01:01:10.709 : en:Chapter 16
01:05:42.689 : en:Chapter 17
01:10:04.200 : en:Chapter 18
01:13:54.513 : en:Chapter 19
01:18:18.569 : en:Chapter 20
01:21:58.497 : en:Chapter 21
01:25:46.266 : en:Chapter 22
01:30:49.611 : en:Chapter 23
01:35:58.461 : en:Chapter 24

Report created by : MediaInfoLib - v21.09

Files