The Marvels (2023) (1080p BDRip x265 10bit EAC3 7 1 English - JBENT)[TAoE]

Carol Danvers gets her powers entangled with those of Kamala Khan and Monica Rambeau, forcing them to work together to save the universe.

Year: 2023
Duration: 105 min
Release date: Wednesday 8th November 2023
Genre: Action, Adventure, Fantasy

Rating

5.7/10
(75240 Votes)

0

Your Rating

Stars:
Brie Larson, Teyonah Parris, Iman Vellani, Samuel L. Jackson, Zawe Ashton, Gary Lewis, Park Seo-joon, Zenobia Shroff

The Marvels (2023)

Quantization Parameter

Avg QP : 21.74
frame I: 1793, Avg QP:16.24 kb/s: 20784.59
frame P: 32752, Avg QP:17.78 kb/s: 9825.84
frame B: 116127, Avg QP:22.94 kb/s: 1729.01

Encode Media Information

General
Unique ID : 237305028221162145460687357925461013841 (0xB287493604466C3E5093D5953EF73551)
Complete name : The Marvels (2023) (1080p BDRip x265 10bit EAC3 7.1 English - JBENT)[TAoE].mkv
Format : Matroska
Format version : Version 4
File size : 3.76 GiB
Duration : 1 h 44 min
Overall bit rate : 5 145 kb/s
Movie name : The Marvels (2023)
Encoded date : UTC 2024-07-06 20:09:43
Writing application : mkvmerge v81.0 ('Milliontown') 64-bit
Writing library : libebml v1.4.4 + libmatroska v1.7.1

Video
ID : 1
Format : HEVC
Format/Info : High Efficiency Video Coding
Format profile : Main 10@L4@Main
Codec ID : V_MPEGH/ISO/HEVC
Duration : 1 h 44 min
Bit rate : 3 717 kb/s
Width : 1 920 pixels
Height : 804 pixels
Display aspect ratio : 2.40:1
Frame rate mode : Constant
Frame rate : 23.976 (24000/1001) FPS
Color space : YUV
Chroma subsampling : 4:2:0
Bit depth : 10 bits
Bits/(Pixel*Frame) : 0.100
Stream size : 2.72 GiB (72%)
Writing library : x265 3.6+13+1-726aec126:[Windows][MSVC 1939][64 bit] 10bit
Encoding settings : cpuid=1111039 / frame-threads=4 / numa-pools=24 / wpp / no-pmode / no-pme / no-psnr / no-ssim / log-level=2 / input-csp=1 / input-res=1920x804 / interlace=0 / total-frames=150672 / level-idc=0 / high-tier=1 / uhd-bd=0 / ref=4 / no-allow-non-conformance / no-repeat-headers / annexb / no-aud / no-eob / no-eos / no-hrd / info / hash=0 / temporal-layers=0 / open-gop / min-keyint=23 / keyint=250 / gop-lookahead=0 / bframes=8 / b-adapt=2 / b-pyramid / bframe-bias=0 / rc-lookahead=80 / lookahead-slices=4 / scenecut=40 / no-hist-scenecut / radl=0 / no-splice / no-intra-refresh / ctu=64 / min-cu-size=8 / no-rect / no-amp / max-tu-size=32 / tu-inter-depth=1 / tu-intra-depth=1 / limit-tu=0 / rdoq-level=2 / dynamic-rd=0.00 / no-ssim-rd / signhide / no-tskip / nr-intra=0 / nr-inter=0 / no-constrained-intra / no-strong-intra-smoothing / max-merge=3 / limit-refs=3 / limit-modes / me=3 / subme=5 / merange=57 / temporal-mvp / no-frame-dup / no-hme / weightp / no-weightb / no-analyze-src-pics / deblock=0:0 / sao / no-sao-non-deblock / rd=4 / selective-sao=4 / no-early-skip / rskip / no-fast-intra / no-tskip-fast / no-cu-lossless / no-b-intra / no-splitrd-skip / rdpenalty=0 / psy-rd=1.30 / psy-rdoq=2.00 / no-rd-refine / no-lossless / cbqpoffs=0 / crqpoffs=0 / rc=crf / crf=17.0 / qcomp=0.60 / qpstep=4 / stats-write=0 / stats-read=0 / ipratio=1.40 / pbratio=1.30 / aq-mode=4 / aq-strength=1.10 / aq-bias-strength=1.00 / cutree / zone-count=0 / no-strict-cbr / qg-size=32 / no-rc-grain / qpmax=69 / qpmin=0 / no-const-vbv / sar=0 / overscan=0 / videoformat=5 / range=0 / colorprim=2 / transfer=2 / colormatrix=2 / chromaloc=0 / display-window=0 / cll=0,0 / min-luma=0 / max-luma=1023 / log2-max-poc-lsb=8 / vui-timing-info / vui-hrd-info / slices=1 / no-opt-qp-pps / no-opt-ref-list-length-pps / no-multi-pass-opt-rps / scenecut-bias=0.05 / no-opt-cu-delta-qp / no-aq-motion / no-hdr10 / no-hdr10-opt / no-dhdr10-opt / no-idr-recovery-sei / analysis-reuse-level=0 / analysis-save-reuse-level=0 / analysis-load-reuse-level=0 / scale-factor=0 / refine-intra=0 / refine-inter=0 / refine-mv=1 / refine-ctu-distortion=0 / no-limit-sao / ctu-info=0 / no-lowpass-dct / refine-analysis-type=0 / copy-pic=1 / max-ausize-factor=1.0 / no-dynamic-refine / no-single-sei / no-hevc-aq / no-svt / no-field / qp-adaptation-range=1.00 / scenecut-aware-qp=0 / conformance-window-offsets / right=0 / bottom=0 / decoder-max-rate=0 / no-vbv-live-multi-pass / no-mcstf / no-sbrc
Default : Yes
Forced : No

Audio #1
ID : 2
Format : E-AC-3
Format/Info : Enhanced AC-3
Commercial name : Dolby Digital Plus
Format settings : Dolby Surround EX
Codec ID : A_EAC3
Duration : 1 h 44 min
Bit rate mode : Constant
Bit rate : 1 024 kb/s
Channel(s) : 8 channels
Channel layout : L R C LFE Ls Rs Lb Rb
Sampling rate : 48.0 kHz
Frame rate : 31.250 FPS (1536 SPF)
Compression mode : Lossy
Stream size : 767 MiB (20%)
Language : English
Service kind : Complete Main
Default : Yes
Forced : No

Audio #2
ID : 3
Format : AC-3
Format/Info : Audio Coding 3
Commercial name : Dolby Digital
Codec ID : A_AC3
Duration : 1 h 44 min
Bit rate mode : Constant
Bit rate : 192 kb/s
Channel(s) : 2 channels
Channel layout : L R
Sampling rate : 48.0 kHz
Frame rate : 31.250 FPS (1536 SPF)
Compression mode : Lossy
Stream size : 144 MiB (4%)
Title : Commentary by Nia DaCosta/Tara DeMarco
Language : English
Service kind : Complete Main
Default : No
Forced : No

Text #1
ID : 4
Format : PGS
Muxing mode : zlib
Codec ID : S_HDMV/PGS
Codec ID/Info : Picture based subtitle format used on BDs/HD-DVDs
Duration : 1 min 29 s
Bit rate : 3 042 b/s
Count of elements : 4
Stream size : 33.3 KiB (0%)
Title : English (Forced only)
Language : English
Default : Yes
Forced : Yes

Text #2
ID : 5
Format : UTF-8
Codec ID : S_TEXT/UTF8
Codec ID/Info : UTF-8 Plain Text
Duration : 1 h 35 min
Bit rate : 55 b/s
Count of elements : 1373
Stream size : 38.7 KiB (0%)
Title : English
Language : English
Default : No
Forced : No

Text #3
ID : 6
Format : PGS
Muxing mode : zlib
Codec ID : S_HDMV/PGS
Codec ID/Info : Picture based subtitle format used on BDs/HD-DVDs
Duration : 1 h 44 min
Bit rate : 49.1 kb/s
Count of elements : 3580
Stream size : 36.7 MiB (1%)
Title : English (SDH)
Language : English
Default : No
Forced : No

Text #4
ID : 7
Format : UTF-8
Codec ID : S_TEXT/UTF8
Codec ID/Info : UTF-8 Plain Text
Duration : 1 h 42 min
Bit rate : 71 b/s
Count of elements : 1226
Stream size : 53.7 KiB (0%)
Title : Arabic
Language : Arabic
Default : No
Forced : No

Text #5
ID : 8
Format : UTF-8
Codec ID : S_TEXT/UTF8
Codec ID/Info : UTF-8 Plain Text
Duration : 1 h 42 min
Bit rate : 71 b/s
Count of elements : 1220
Stream size : 53.7 KiB (0%)
Title : Bulgarian
Language : Bulgarian
Default : No
Forced : No

Text #6
ID : 9
Format : UTF-8
Codec ID : S_TEXT/UTF8
Codec ID/Info : UTF-8 Plain Text
Duration : 1 h 42 min
Bit rate : 40 b/s
Count of elements : 1227
Stream size : 30.2 KiB (0%)
Title : Chinese (Cantonese)
Default : No
Forced : No

Text #7
ID : 10
Format : UTF-8
Codec ID : S_TEXT/UTF8
Codec ID/Info : UTF-8 Plain Text
Duration : 1 h 42 min
Bit rate : 36 b/s
Count of elements : 1239
Stream size : 27.2 KiB (0%)
Title : Chinese (Traditional)
Language : Chinese
Default : No
Forced : No

Text #8
ID : 11
Format : UTF-8
Codec ID : S_TEXT/UTF8
Codec ID/Info : UTF-8 Plain Text
Duration : 1 h 42 min
Bit rate : 48 b/s
Count of elements : 1167
Stream size : 36.1 KiB (0%)
Title : Croatian
Language : Croatian
Default : No
Forced : No

Text #9
ID : 12
Format : UTF-8
Codec ID : S_TEXT/UTF8
Codec ID/Info : UTF-8 Plain Text
Duration : 1 h 42 min
Bit rate : 44 b/s
Count of elements : 1206
Stream size : 33.5 KiB (0%)
Title : Czech
Language : Czech
Default : No
Forced : No

Text #10
ID : 13
Format : UTF-8
Codec ID : S_TEXT/UTF8
Codec ID/Info : UTF-8 Plain Text
Duration : 1 h 42 min
Bit rate : 40 b/s
Count of elements : 777
Stream size : 30.2 KiB (0%)
Title : Danish
Language : Danish
Default : No
Forced : No

Text #11
ID : 14
Format : UTF-8
Codec ID : S_TEXT/UTF8
Codec ID/Info : UTF-8 Plain Text
Duration : 1 h 42 min
Bit rate : 44 b/s
Count of elements : 1058
Stream size : 33.5 KiB (0%)
Title : Dutch
Language : Dutch
Default : No
Forced : No

Text #12
ID : 15
Format : UTF-8
Codec ID : S_TEXT/UTF8
Codec ID/Info : UTF-8 Plain Text
Duration : 1 h 42 min
Bit rate : 50 b/s
Count of elements : 1225
Stream size : 37.5 KiB (0%)
Title : Estonian
Language : Estonian
Default : No
Forced : No

Text #13
ID : 16
Format : UTF-8
Codec ID : S_TEXT/UTF8
Codec ID/Info : UTF-8 Plain Text
Duration : 1 h 42 min
Bit rate : 51 b/s
Count of elements : 1215
Stream size : 38.4 KiB (0%)
Title : Finnish
Language : Finnish
Default : No
Forced : No

Text #14
ID : 17
Format : PGS
Muxing mode : zlib
Codec ID : S_HDMV/PGS
Codec ID/Info : Picture based subtitle format used on BDs/HD-DVDs
Duration : 1 h 42 min
Bit rate : 37.0 kb/s
Count of elements : 2496
Stream size : 27.0 MiB (1%)
Title : French (Canadian)
Language : French
Default : No
Forced : No

Text #15
ID : 18
Format : UTF-8
Codec ID : S_TEXT/UTF8
Codec ID/Info : UTF-8 Plain Text
Duration : 1 h 42 min
Bit rate : 40 b/s
Count of elements : 1138
Stream size : 30.2 KiB (0%)
Title : French (Parisian)
Language : French
Default : No
Forced : No

Text #16
ID : 19
Format : UTF-8
Codec ID : S_TEXT/UTF8
Codec ID/Info : UTF-8 Plain Text
Duration : 1 h 42 min
Bit rate : 43 b/s
Count of elements : 1070
Stream size : 32.8 KiB (0%)
Title : German
Language : German
Default : No
Forced : No

Text #17
ID : 20
Format : UTF-8
Codec ID : S_TEXT/UTF8
Codec ID/Info : UTF-8 Plain Text
Duration : 1 h 42 min
Bit rate : 80 b/s
Count of elements : 1208
Stream size : 60.4 KiB (0%)
Title : Greek
Language : Greek
Default : No
Forced : No

Text #18
ID : 21
Format : UTF-8
Codec ID : S_TEXT/UTF8
Codec ID/Info : UTF-8 Plain Text
Duration : 1 h 42 min
Bit rate : 62 b/s
Count of elements : 1223
Stream size : 47.1 KiB (0%)
Title : Hebrew
Language : Hebrew
Default : No
Forced : No

Text #19
ID : 22
Format : UTF-8
Codec ID : S_TEXT/UTF8
Codec ID/Info : UTF-8 Plain Text
Duration : 1 h 42 min
Bit rate : 126 b/s
Count of elements : 1227
Stream size : 94.8 KiB (0%)
Title : Hindi
Language : Hindi
Default : No
Forced : No

Text #20
ID : 23
Format : UTF-8
Codec ID : S_TEXT/UTF8
Codec ID/Info : UTF-8 Plain Text
Duration : 1 h 42 min
Bit rate : 43 b/s
Count of elements : 1192
Stream size : 32.4 KiB (0%)
Title : Hungarian
Language : Hungarian
Default : No
Forced : No

Text #21
ID : 24
Format : UTF-8
Codec ID : S_TEXT/UTF8
Codec ID/Info : UTF-8 Plain Text
Duration : 1 h 42 min
Bit rate : 48 b/s
Count of elements : 1211
Stream size : 36.3 KiB (0%)
Title : Icelandic
Language : Icelandic
Default : No
Forced : No

Text #22
ID : 25
Format : UTF-8
Codec ID : S_TEXT/UTF8
Codec ID/Info : UTF-8 Plain Text
Duration : 1 h 42 min
Bit rate : 47 b/s
Count of elements : 1210
Stream size : 35.8 KiB (0%)
Title : Italian
Language : Italian
Default : No
Forced : No

Text #23
ID : 26
Format : PGS
Muxing mode : zlib
Codec ID : S_HDMV/PGS
Codec ID/Info : Picture based subtitle format used on BDs/HD-DVDs
Duration : 1 h 42 min
Bit rate : 22.4 kb/s
Count of elements : 2192
Stream size : 16.4 MiB (0%)
Title : Japanese
Language : Japanese
Default : No
Forced : No

Text #24
ID : 27
Format : UTF-8
Codec ID : S_TEXT/UTF8
Codec ID/Info : UTF-8 Plain Text
Duration : 1 h 35 min
Bit rate : 52 b/s
Count of elements : 1218
Stream size : 36.3 KiB (0%)
Title : Korean
Language : Korean
Default : No
Forced : No

Text #25
ID : 28
Format : UTF-8
Codec ID : S_TEXT/UTF8
Codec ID/Info : UTF-8 Plain Text
Duration : 1 h 42 min
Bit rate : 49 b/s
Count of elements : 1226
Stream size : 36.9 KiB (0%)
Title : Latvian
Language : Latvian
Default : No
Forced : No

Text #26
ID : 29
Format : UTF-8
Codec ID : S_TEXT/UTF8
Codec ID/Info : UTF-8 Plain Text
Duration : 1 h 42 min
Bit rate : 45 b/s
Count of elements : 1201
Stream size : 34.1 KiB (0%)
Title : Lithuanian
Language : Lithuanian
Default : No
Forced : No

Text #27
ID : 30
Format : UTF-8
Codec ID : S_TEXT/UTF8
Codec ID/Info : UTF-8 Plain Text
Duration : 1 h 42 min
Bit rate : 46 b/s
Count of elements : 1214
Stream size : 34.8 KiB (0%)
Title : Norwegian
Language : Norwegian
Default : No
Forced : No

Text #28
ID : 31
Format : UTF-8
Codec ID : S_TEXT/UTF8
Codec ID/Info : UTF-8 Plain Text
Duration : 1 h 42 min
Bit rate : 41 b/s
Count of elements : 1207
Stream size : 30.9 KiB (0%)
Title : Polish
Language : Polish
Default : No
Forced : No

Text #29
ID : 32
Format : UTF-8
Codec ID : S_TEXT/UTF8
Codec ID/Info : UTF-8 Plain Text
Duration : 1 h 42 min
Bit rate : 49 b/s
Count of elements : 1212
Stream size : 37.4 KiB (0%)
Title : Portuguese (Brazilian)
Language : Portuguese
Default : No
Forced : No

Text #30
ID : 33
Format : UTF-8
Codec ID : S_TEXT/UTF8
Codec ID/Info : UTF-8 Plain Text
Duration : 1 h 44 min
Bit rate : 47 b/s
Count of elements : 1208
Stream size : 36.2 KiB (0%)
Title : Portuguese (Iberian)
Language : Portuguese
Default : No
Forced : No

Text #31
ID : 34
Format : UTF-8
Codec ID : S_TEXT/UTF8
Codec ID/Info : UTF-8 Plain Text
Duration : 1 h 42 min
Bit rate : 50 b/s
Count of elements : 1147
Stream size : 37.6 KiB (0%)
Title : Romanian
Language : Romanian
Default : No
Forced : No

Text #32
ID : 35
Format : UTF-8
Codec ID : S_TEXT/UTF8
Codec ID/Info : UTF-8 Plain Text
Duration : 1 h 42 min
Bit rate : 43 b/s
Count of elements : 1222
Stream size : 32.4 KiB (0%)
Title : Slovak
Language : Slovak
Default : No
Forced : No

Text #33
ID : 36
Format : UTF-8
Codec ID : S_TEXT/UTF8
Codec ID/Info : UTF-8 Plain Text
Duration : 1 h 42 min
Bit rate : 42 b/s
Count of elements : 949
Stream size : 32.1 KiB (0%)
Title : Slovenian
Language : Slovenian
Default : No
Forced : No

Text #34
ID : 37
Format : UTF-8
Codec ID : S_TEXT/UTF8
Codec ID/Info : UTF-8 Plain Text
Duration : 1 h 42 min
Bit rate : 46 b/s
Count of elements : 1213
Stream size : 34.9 KiB (0%)
Title : Spanish (Castilian)
Language : Spanish
Default : No
Forced : No

Text #35
ID : 38
Format : PGS
Muxing mode : zlib
Codec ID : S_HDMV/PGS
Codec ID/Info : Picture based subtitle format used on BDs/HD-DVDs
Duration : 1 h 35 min
Bit rate : 35.8 kb/s
Count of elements : 2456
Stream size : 24.4 MiB (1%)
Title : Spanish (Latin American)
Language : Spanish
Default : No
Forced : No

Text #36
ID : 39
Format : UTF-8
Codec ID : S_TEXT/UTF8
Codec ID/Info : UTF-8 Plain Text
Duration : 1 h 42 min
Bit rate : 43 b/s
Count of elements : 918
Stream size : 32.7 KiB (0%)
Title : Swedish
Language : Swedish
Default : No
Forced : No

Text #37
ID : 40
Format : UTF-8
Codec ID : S_TEXT/UTF8
Codec ID/Info : UTF-8 Plain Text
Duration : 1 h 42 min
Bit rate : 48 b/s
Count of elements : 1207
Stream size : 36.6 KiB (0%)
Title : Turkish
Language : Turkish
Default : No
Forced : No

Text #38
ID : 41
Format : UTF-8
Codec ID : S_TEXT/UTF8
Codec ID/Info : UTF-8 Plain Text
Duration : 1 h 42 min
Bit rate : 81 b/s
Count of elements : 1227
Stream size : 60.7 KiB (0%)
Title : Ukrainian
Language : Ukrainian
Default : No
Forced : No

Text #39
ID : 42
Format : PGS
Muxing mode : zlib
Codec ID : S_HDMV/PGS
Codec ID/Info : Picture based subtitle format used on BDs/HD-DVDs
Duration : 1 h 44 min
Bit rate : 90.8 kb/s
Count of elements : 4488
Stream size : 67.9 MiB (2%)
Title : English (Commentary)
Language : English
Default : No
Forced : No

Text #40
ID : 43
Format : PGS
Muxing mode : zlib
Codec ID : S_HDMV/PGS
Codec ID/Info : Picture based subtitle format used on BDs/HD-DVDs
Duration : 1 h 44 min
Bit rate : 72.3 kb/s
Count of elements : 3984
Stream size : 54.1 MiB (1%)
Title : French (Commentary)
Language : French
Default : No
Forced : No

Text #41
ID : 44
Format : PGS
Muxing mode : zlib
Codec ID : S_HDMV/PGS
Codec ID/Info : Picture based subtitle format used on BDs/HD-DVDs
Duration : 1 h 44 min
Bit rate : 45.7 kb/s
Count of elements : 2945
Stream size : 34.2 MiB (1%)
Title : Japanese (Commentary)
Language : Japanese
Default : No
Forced : No

Text #42
ID : 45
Format : PGS
Muxing mode : zlib
Codec ID : S_HDMV/PGS
Codec ID/Info : Picture based subtitle format used on BDs/HD-DVDs
Duration : 1 h 44 min
Bit rate : 65.3 kb/s
Count of elements : 3592
Stream size : 48.9 MiB (1%)
Title : Spanish (Commentary)
Language : Spanish
Default : No
Forced : No

Menu
00:00:00.000 : en:Chapter 1
00:04:20.969 : en:Chapter 2
00:07:03.006 : en:Chapter 3
00:11:09.711 : en:Chapter 4
00:14:14.270 : en:Chapter 5
00:21:09.018 : en:Chapter 6
00:27:19.888 : en:Chapter 7
00:29:42.739 : en:Chapter 8
00:33:25.503 : en:Chapter 9
00:38:08.077 : en:Chapter 10
00:43:50.253 : en:Chapter 11
00:48:06.133 : en:Chapter 12
00:50:26.815 : en:Chapter 13
00:52:31.023 : en:Chapter 14
00:58:52.070 : en:Chapter 15
01:05:07.695 : en:Chapter 16
01:09:47.683 : en:Chapter 17
01:17:14.547 : en:Chapter 18
01:23:57.032 : en:Chapter 19
01:27:25.031 : en:Chapter 20
01:29:50.010 : en:Chapter 21
01:32:04.102 : en:Chapter 22
01:33:11.085 : en:Chapter 23
01:35:53.831 : en:Chapter 24
01:37:35.183 : en:Chapter 25

Source Media Information

General
Unique ID : 229148339811192400153085280618212775276 (0xAC645D6C5FA377B2FB809C469790556C)
Complete name : The.Marvels.2023.BluRay.1080p.TrueHD.Atmos.7.1.AVC.HYBRID.REMUX-FraMeSToR.mkv
Format : Matroska
Format version : Version 4
File size : 27.3 GiB
Duration : 1 h 44 min
Overall bit rate mode : Variable
Overall bit rate : 37.3 Mb/s
Movie name : The Marvels (2023)
Encoded date : UTC 2024-02-12 04:06:20
Writing application : mkvmerge v82.0 ('I'm The President') 64-bit
Writing library : libebml v1.4.5 + libmatroska v1.7.1
IMDB : tt10676048
TMDB : movie/609681

Video
ID : 1
Format : AVC
Format/Info : Advanced Video Codec: Format profile : High@L4.1
Format settings : CABAC / 4 Ref Frames
Format settings, CABAC : Yes
Format settings, Reference frames : 4 frames
Codec ID : V_MPEG4/ISO/AVC
Duration : 1 h 44 min
Bit rate mode : Variable
Bit rate : 31.3 Mb/s
Maximum bit rate : 34.8 Mb/s
Width : 1 920 pixels
Height : 1 080 pixels
Display aspect ratio : 16:9
Frame rate mode : Constant
Frame rate : 23.976 (24000/1001) FPS
Color space : YUV
Chroma subsampling : 4:2:0
Bit depth : 8 bits
Scan type : Progressive
Bits/(Pixel*Frame) : 0.630
Stream size : 22.9 GiB (84%)
Default : Yes
Forced : No

Audio #1
ID : 2
Format : MLP FBA 16-ch
Format/Info : Meridian Lossless Packing FBA with 16-channel presentation
Commercial name : Dolby TrueHD with Dolby Atmos
Codec ID : A_TRUEHD
Duration : 1 h 44 min
Bit rate mode : Variable
Bit rate : 4 686 kb/s
Maximum bit rate : 8 028 kb/s
Channel(s) : 8 channels
Channel layout : L R C LFE Ls Rs Lb Rb
Sampling rate : 48.0 kHz
Frame rate : 1 200.000 FPS (40 SPF)
Compression mode : Lossless
Stream size : 3.43 GiB (13%)
Title : TrueHD Atmos 7.1
Language : English
Default : Yes
Forced : No
Number of dynamic objects : 13
Bed channel count : 1 channel
Bed channel configuration : LFE

Audio #2
ID : 3
Format : AC-3
Format/Info : Audio Coding 3
Commercial name : Dolby Digital
Codec ID : A_AC3
Duration : 1 h 44 min
Bit rate mode : Constant
Bit rate : 640 kb/s
Channel(s) : 6 channels
Channel layout : L R C LFE Ls Rs
Sampling rate : 48.0 kHz
Frame rate : 31.250 FPS (1536 SPF)
Compression mode : Lossy
Stream size : 479 MiB (2%)
Title : AC-3 5.1
Language : English
Service kind : Complete Main
Default : No
Forced : No

Audio #3
ID : 4
Format : AC-3
Format/Info : Audio Coding 3
Commercial name : Dolby Digital
Codec ID : A_AC3
Duration : 1 h 44 min
Bit rate mode : Constant
Bit rate : 192 kb/s
Channel(s) : 2 channels
Channel layout : L R
Sampling rate : 48.0 kHz
Frame rate : 31.250 FPS (1536 SPF)
Compression mode : Lossy
Stream size : 144 MiB (1%)
Title : Commentary by Nia DaCosta/Tara DeMarco
Language : English
Service kind : Complete Main
Default : No
Forced : No

Text #1
ID : 5
Format : PGS
Codec ID : S_HDMV/PGS
Codec ID/Info : Picture based subtitle format used on BDs/HD-DVDs
Duration : 1 min 29 s
Bit rate : 3 042 b/s
Count of elements : 4
Stream size : 33.3 KiB (0%)
Title : English (Forced only)
Language : English
Default : Yes
Forced : Yes

Text #2
ID : 6
Format : UTF-8
Codec ID : S_TEXT/UTF8
Codec ID/Info : UTF-8 Plain Text
Duration : 1 h 35 min
Bit rate : 55 b/s
Count of elements : 1373
Stream size : 38.7 KiB (0%)
Title : English
Language : English
Default : No
Forced : No

Text #3
ID : 7
Format : PGS
Codec ID : S_HDMV/PGS
Codec ID/Info : Picture based subtitle format used on BDs/HD-DVDs
Duration : 1 h 44 min
Bit rate : 49.1 kb/s
Count of elements : 3580
Stream size : 36.7 MiB (0%)
Title : English (SDH)
Language : English
Default : No
Forced : No

Text #4
ID : 8
Format : UTF-8
Codec ID : S_TEXT/UTF8
Codec ID/Info : UTF-8 Plain Text
Duration : 1 h 42 min
Bit rate : 71 b/s
Count of elements : 1226
Stream size : 53.7 KiB (0%)
Title : Arabic
Language : Arabic
Default : No
Forced : No

Text #5
ID : 9
Format : UTF-8
Codec ID : S_TEXT/UTF8
Codec ID/Info : UTF-8 Plain Text
Duration : 1 h 42 min
Bit rate : 71 b/s
Count of elements : 1220
Stream size : 53.7 KiB (0%)
Title : Bulgarian
Language : Bulgarian
Default : No
Forced : No

Text #6
ID : 10
Format : UTF-8
Codec ID : S_TEXT/UTF8
Codec ID/Info : UTF-8 Plain Text
Duration : 1 h 42 min
Bit rate : 40 b/s
Count of elements : 1227
Stream size : 30.2 KiB (0%)
Title : Chinese (Cantonese)
Language : Chinese
Default : No
Forced : No

Text #7
ID : 11
Format : UTF-8
Codec ID : S_TEXT/UTF8
Codec ID/Info : UTF-8 Plain Text
Duration : 1 h 42 min
Bit rate : 36 b/s
Count of elements : 1239
Stream size : 27.2 KiB (0%)
Title : Chinese (Traditional)
Language : Chinese
Default : No
Forced : No

Text #8
ID : 12
Format : UTF-8
Codec ID : S_TEXT/UTF8
Codec ID/Info : UTF-8 Plain Text
Duration : 1 h 42 min
Bit rate : 48 b/s
Count of elements : 1167
Stream size : 36.1 KiB (0%)
Title : Croatian
Language : Croatian
Default : No
Forced : No

Text #9
ID : 13
Format : UTF-8
Codec ID : S_TEXT/UTF8
Codec ID/Info : UTF-8 Plain Text
Duration : 1 h 42 min
Bit rate : 44 b/s
Count of elements : 1206
Stream size : 33.5 KiB (0%)
Title : Czech
Language : Czech
Default : No
Forced : No

Text #10
ID : 14
Format : UTF-8
Codec ID : S_TEXT/UTF8
Codec ID/Info : UTF-8 Plain Text
Duration : 1 h 42 min
Bit rate : 40 b/s
Count of elements : 777
Stream size : 30.2 KiB (0%)
Title : Danish
Language : Danish
Default : No
Forced : No

Text #11
ID : 15
Format : UTF-8
Codec ID : S_TEXT/UTF8
Codec ID/Info : UTF-8 Plain Text
Duration : 1 h 42 min
Bit rate : 44 b/s
Count of elements : 1058
Stream size : 33.5 KiB (0%)
Title : Dutch
Language : Dutch
Default : No
Forced : No

Text #12
ID : 16
Format : UTF-8
Codec ID : S_TEXT/UTF8
Codec ID/Info : UTF-8 Plain Text
Duration : 1 h 42 min
Bit rate : 50 b/s
Count of elements : 1225
Stream size : 37.5 KiB (0%)
Title : Estonian
Language : Estonian
Default : No
Forced : No

Text #13
ID : 17
Format : UTF-8
Codec ID : S_TEXT/UTF8
Codec ID/Info : UTF-8 Plain Text
Duration : 1 h 42 min
Bit rate : 51 b/s
Count of elements : 1215
Stream size : 38.4 KiB (0%)
Title : Finnish
Language : Finnish
Default : No
Forced : No

Text #14
ID : 18
Format : PGS
Codec ID : S_HDMV/PGS
Codec ID/Info : Picture based subtitle format used on BDs/HD-DVDs
Duration : 1 h 42 min
Bit rate : 37.0 kb/s
Count of elements : 2496
Stream size : 27.0 MiB (0%)
Title : French (Canadian)
Language : French
Default : No
Forced : No

Text #15
ID : 19
Format : UTF-8
Codec ID : S_TEXT/UTF8
Codec ID/Info : UTF-8 Plain Text
Duration : 1 h 42 min
Bit rate : 40 b/s
Count of elements : 1138
Stream size : 30.2 KiB (0%)
Title : French (Parisian)
Language : French
Default : No
Forced : No

Text #16
ID : 20
Format : UTF-8
Codec ID : S_TEXT/UTF8
Codec ID/Info : UTF-8 Plain Text
Duration : 1 h 42 min
Bit rate : 43 b/s
Count of elements : 1070
Stream size : 32.8 KiB (0%)
Title : German
Language : German
Default : No
Forced : No

Text #17
ID : 21
Format : UTF-8
Codec ID : S_TEXT/UTF8
Codec ID/Info : UTF-8 Plain Text
Duration : 1 h 42 min
Bit rate : 80 b/s
Count of elements : 1208
Stream size : 60.4 KiB (0%)
Title : Greek
Language : Greek
Default : No
Forced : No

Text #18
ID : 22
Format : UTF-8
Codec ID : S_TEXT/UTF8
Codec ID/Info : UTF-8 Plain Text
Duration : 1 h 42 min
Bit rate : 62 b/s
Count of elements : 1223
Stream size : 47.1 KiB (0%)
Title : Hebrew
Language : Hebrew
Default : No
Forced : No

Text #19
ID : 23
Format : UTF-8
Codec ID : S_TEXT/UTF8
Codec ID/Info : UTF-8 Plain Text
Duration : 1 h 42 min
Bit rate : 126 b/s
Count of elements : 1227
Stream size : 94.8 KiB (0%)
Title : Hindi
Language : Hindi
Default : No
Forced : No

Text #20
ID : 24
Format : UTF-8
Codec ID : S_TEXT/UTF8
Codec ID/Info : UTF-8 Plain Text
Duration : 1 h 42 min
Bit rate : 43 b/s
Count of elements : 1192
Stream size : 32.4 KiB (0%)
Title : Hungarian
Language : Hungarian
Default : No
Forced : No

Text #21
ID : 25
Format : UTF-8
Codec ID : S_TEXT/UTF8
Codec ID/Info : UTF-8 Plain Text
Duration : 1 h 42 min
Bit rate : 48 b/s
Count of elements : 1211
Stream size : 36.3 KiB (0%)
Title : Icelandic
Language : Icelandic
Default : No
Forced : No

Text #22
ID : 26
Format : UTF-8
Codec ID : S_TEXT/UTF8
Codec ID/Info : UTF-8 Plain Text
Duration : 1 h 42 min
Bit rate : 47 b/s
Count of elements : 1210
Stream size : 35.8 KiB (0%)
Title : Italian
Language : Italian
Default : No
Forced : No

Text #23
ID : 27
Format : PGS
Codec ID : S_HDMV/PGS
Codec ID/Info : Picture based subtitle format used on BDs/HD-DVDs
Duration : 1 h 42 min
Bit rate : 22.4 kb/s
Count of elements : 2192
Stream size : 16.4 MiB (0%)
Title : Japanese
Language : Japanese
Default : No
Forced : No

Text #24
ID : 28
Format : UTF-8
Codec ID : S_TEXT/UTF8
Codec ID/Info : UTF-8 Plain Text
Duration : 1 h 35 min
Bit rate : 52 b/s
Count of elements : 1218
Stream size : 36.3 KiB (0%)
Title : Korean
Language : Korean
Default : No
Forced : No

Text #25
ID : 29
Format : UTF-8
Codec ID : S_TEXT/UTF8
Codec ID/Info : UTF-8 Plain Text
Duration : 1 h 42 min
Bit rate : 49 b/s
Count of elements : 1226
Stream size : 36.9 KiB (0%)
Title : Latvian
Language : Latvian
Default : No
Forced : No

Text #26
ID : 30
Format : UTF-8
Codec ID : S_TEXT/UTF8
Codec ID/Info : UTF-8 Plain Text
Duration : 1 h 42 min
Bit rate : 45 b/s
Count of elements : 1201
Stream size : 34.1 KiB (0%)
Title : Lithuanian
Language : Lithuanian
Default : No
Forced : No

Text #27
ID : 31
Format : UTF-8
Codec ID : S_TEXT/UTF8
Codec ID/Info : UTF-8 Plain Text
Duration : 1 h 42 min
Bit rate : 46 b/s
Count of elements : 1214
Stream size : 34.8 KiB (0%)
Title : Norwegian
Language : Norwegian
Default : No
Forced : No

Text #28
ID : 32
Format : UTF-8
Codec ID : S_TEXT/UTF8
Codec ID/Info : UTF-8 Plain Text
Duration : 1 h 42 min
Bit rate : 41 b/s
Count of elements : 1207
Stream size : 30.9 KiB (0%)
Title : Polish
Language : Polish
Default : No
Forced : No

Text #29
ID : 33
Format : UTF-8
Codec ID : S_TEXT/UTF8
Codec ID/Info : UTF-8 Plain Text
Duration : 1 h 42 min
Bit rate : 49 b/s
Count of elements : 1212
Stream size : 37.4 KiB (0%)
Title : Portuguese (Brazilian)
Language : Portuguese
Default : No
Forced : No

Text #30
ID : 34
Format : UTF-8
Codec ID : S_TEXT/UTF8
Codec ID/Info : UTF-8 Plain Text
Duration : 1 h 44 min
Bit rate : 47 b/s
Count of elements : 1208
Stream size : 36.2 KiB (0%)
Title : Portuguese (Iberian)
Language : Portuguese
Default : No
Forced : No

Text #31
ID : 35
Format : UTF-8
Codec ID : S_TEXT/UTF8
Codec ID/Info : UTF-8 Plain Text
Duration : 1 h 42 min
Bit rate : 50 b/s
Count of elements : 1147
Stream size : 37.6 KiB (0%)
Title : Romanian
Language : Romanian
Default : No
Forced : No

Text #32
ID : 36
Format : UTF-8
Codec ID : S_TEXT/UTF8
Codec ID/Info : UTF-8 Plain Text
Duration : 1 h 42 min
Bit rate : 43 b/s
Count of elements : 1222
Stream size : 32.4 KiB (0%)
Title : Slovak
Language : Slovak
Default : No
Forced : No

Text #33
ID : 37
Format : UTF-8
Codec ID : S_TEXT/UTF8
Codec ID/Info : UTF-8 Plain Text
Duration : 1 h 42 min
Bit rate : 42 b/s
Count of elements : 949
Stream size : 32.1 KiB (0%)
Title : Slovenian
Language : Slovenian
Default : No
Forced : No

Text #34
ID : 38
Format : UTF-8
Codec ID : S_TEXT/UTF8
Codec ID/Info : UTF-8 Plain Text
Duration : 1 h 42 min
Bit rate : 46 b/s
Count of elements : 1213
Stream size : 34.9 KiB (0%)
Title : Spanish (Castilian)
Language : Spanish
Default : No
Forced : No

Text #35
ID : 39
Format : PGS
Codec ID : S_HDMV/PGS
Codec ID/Info : Picture based subtitle format used on BDs/HD-DVDs
Duration : 1 h 35 min
Bit rate : 35.8 kb/s
Count of elements : 2456
Stream size : 24.4 MiB (0%)
Title : Spanish (Latin American)
Language : Spanish
Default : No
Forced : No

Text #36
ID

Files