The Other Guys (2010) (1080p BDRip x265 10bit EAC3 5 1 English - JBENT)[TAoE]

Two mismatched New York City detectives seize an opportunity to step up like the city's top cops, whom they idolize, only things don't quite go as planned.

Year: 2010
Duration: 107 min
Release date: Wednesday 27th October 2010
Genre: Action, Comedy, Crime, Thriller

Rating

6.6/10
(284008 Votes)

0

Your Rating

Stars:
Will Ferrell, Derek Jeter, Mark Wahlberg, Eva Mendes, Michael Keaton, Larnell Stovall, Jalil Jay Lynch, Roy T. Anderson

The Other Guys (2010)

Quantization Parameter

Avg QP : 24.14
frame I: 1708, Avg QP:19.66 kb/s: 24751.76
frame P: 27234, Avg QP:21.04 kb/s: 15260.75
frame B: 125642, Avg QP:24.87 kb/s: 4356.19

Encode Media Information

General
Unique ID : 176313150417336603875441920430094491276 (0x84A4AD770CA69959EA35B9FF6C711E8C)
Complete name : The Other Guys (2010) (1080p BDRip x265 10bit EAC3 5.1 English - JBENT)[TAoE].mkv
Format : Matroska
Format version : Version 4
File size : 5.50 GiB
Duration : 1 h 47 min
Overall bit rate : 7 334 kb/s
Movie name : The.Other.Guys.2010.Remastered.BluRay.1080p.DTS-HD.MA.5.1.AVC.REMUX-FraMeSToR
Encoded date : UTC 2024-07-07 01:17:19
Writing application : mkvmerge v81.0 ('Milliontown') 64-bit
Writing library : libebml v1.4.4 + libmatroska v1.7.1

Video
ID : 1
Format : HEVC
Format/Info : High Efficiency Video Coding
Format profile : Main 10@L4@Main
Codec ID : V_MPEGH/ISO/HEVC
Duration : 1 h 47 min
Bit rate : 6 504 kb/s
Width : 1 920 pixels
Height : 804 pixels
Display aspect ratio : 2.40:1
Frame rate mode : Constant
Frame rate : 23.976 (24000/1001) FPS
Color space : YUV
Chroma subsampling : 4:2:0
Bit depth : 10 bits
Bits/(Pixel*Frame) : 0.176
Stream size : 4.88 GiB (89%)
Writing library : x265 3.6+13+1-726aec126:[Windows][MSVC 1939][64 bit] 10bit
Encoding settings : cpuid=1111039 / frame-threads=4 / numa-pools=24 / wpp / no-pmode / no-pme / no-psnr / no-ssim / log-level=2 / input-csp=1 / input-res=1920x804 / interlace=0 / total-frames=154584 / level-idc=0 / high-tier=1 / uhd-bd=0 / ref=4 / no-allow-non-conformance / no-repeat-headers / annexb / no-aud / no-eob / no-eos / no-hrd / info / hash=0 / temporal-layers=0 / open-gop / min-keyint=23 / keyint=250 / gop-lookahead=0 / bframes=8 / b-adapt=2 / b-pyramid / bframe-bias=0 / rc-lookahead=80 / lookahead-slices=4 / scenecut=40 / no-hist-scenecut / radl=0 / no-splice / no-intra-refresh / ctu=64 / min-cu-size=8 / no-rect / no-amp / max-tu-size=32 / tu-inter-depth=1 / tu-intra-depth=1 / limit-tu=0 / rdoq-level=2 / dynamic-rd=0.00 / no-ssim-rd / signhide / no-tskip / nr-intra=0 / nr-inter=0 / no-constrained-intra / no-strong-intra-smoothing / max-merge=3 / limit-refs=3 / limit-modes / me=3 / subme=5 / merange=57 / temporal-mvp / no-frame-dup / no-hme / weightp / no-weightb / no-analyze-src-pics / deblock=0:0 / sao / no-sao-non-deblock / rd=4 / selective-sao=4 / no-early-skip / rskip / no-fast-intra / no-tskip-fast / no-cu-lossless / no-b-intra / no-splitrd-skip / rdpenalty=0 / psy-rd=1.30 / psy-rdoq=2.00 / no-rd-refine / no-lossless / cbqpoffs=0 / crqpoffs=0 / rc=crf / crf=19.5 / qcomp=0.60 / qpstep=4 / stats-write=0 / stats-read=0 / ipratio=1.40 / pbratio=1.30 / aq-mode=4 / aq-strength=1.10 / aq-bias-strength=1.00 / cutree / zone-count=0 / no-strict-cbr / qg-size=32 / no-rc-grain / qpmax=69 / qpmin=0 / no-const-vbv / sar=0 / overscan=0 / videoformat=5 / range=0 / colorprim=2 / transfer=2 / colormatrix=2 / chromaloc=0 / display-window=0 / cll=0,0 / min-luma=0 / max-luma=1023 / log2-max-poc-lsb=8 / vui-timing-info / vui-hrd-info / slices=1 / no-opt-qp-pps / no-opt-ref-list-length-pps / no-multi-pass-opt-rps / scenecut-bias=0.05 / no-opt-cu-delta-qp / no-aq-motion / no-hdr10 / no-hdr10-opt / no-dhdr10-opt / no-idr-recovery-sei / analysis-reuse-level=0 / analysis-save-reuse-level=0 / analysis-load-reuse-level=0 / scale-factor=0 / refine-intra=0 / refine-inter=0 / refine-mv=1 / refine-ctu-distortion=0 / no-limit-sao / ctu-info=0 / no-lowpass-dct / refine-analysis-type=0 / copy-pic=1 / max-ausize-factor=1.0 / no-dynamic-refine / no-single-sei / no-hevc-aq / no-svt / no-field / qp-adaptation-range=1.00 / scenecut-aware-qp=0 / conformance-window-offsets / right=0 / bottom=0 / decoder-max-rate=0 / no-vbv-live-multi-pass / no-mcstf / no-sbrc
Default : Yes
Forced : No

Audio
ID : 2
Format : E-AC-3
Format/Info : Enhanced AC-3
Commercial name : Dolby Digital Plus
Codec ID : A_EAC3
Duration : 1 h 47 min
Bit rate mode : Constant
Bit rate : 768 kb/s
Channel(s) : 6 channels
Channel layout : L R C LFE Ls Rs
Sampling rate : 48.0 kHz
Frame rate : 31.250 FPS (1536 SPF)
Compression mode : Lossy
Stream size : 590 MiB (10%)
Language : English
Service kind : Complete Main
Default : Yes
Forced : No

Text #1
ID : 3
Format : PGS
Muxing mode : zlib
Codec ID : S_HDMV/PGS
Codec ID/Info : Picture based subtitle format used on BDs/HD-DVDs
Duration : 1 h 46 min
Bit rate : 60.7 kb/s
Count of elements : 3617
Stream size : 46.2 MiB (1%)
Title : English
Language : English
Default : No
Forced : No

Text #2
ID : 4
Format : PGS
Muxing mode : zlib
Codec ID : S_HDMV/PGS
Codec ID/Info : Picture based subtitle format used on BDs/HD-DVDs
Duration : 1 h 46 min
Bit rate : 56.0 kb/s
Count of elements : 4664
Stream size : 42.7 MiB (1%)
Title : English SDH
Language : English
Default : No
Forced : No

Text #3
ID : 5
Format : PGS
Muxing mode : zlib
Codec ID : S_HDMV/PGS
Codec ID/Info : Picture based subtitle format used on BDs/HD-DVDs
Duration : 1 h 46 min
Bit rate : 44.1 kb/s
Count of elements : 3868
Stream size : 33.6 MiB (1%)
Title : French
Language : French
Default : No
Forced : No

Text #4
ID : 6
Format : PGS
Muxing mode : zlib
Codec ID : S_HDMV/PGS
Codec ID/Info : Picture based subtitle format used on BDs/HD-DVDs
Duration : 1 h 46 min
Bit rate : 50.9 kb/s
Count of elements : 3631
Stream size : 38.8 MiB (1%)
Title : Spanish
Language : Spanish
Default : No
Forced : No

Menu
00:00:00.000 : en:00:00:00.000
00:09:15.805 : en:00:09:15.805
00:13:24.595 : en:00:13:24.595
00:18:59.138 : en:00:18:59.138
00:26:06.732 : en:00:26:06.732
00:31:09.326 : en:00:31:09.326
00:35:42.766 : en:00:35:42.766
00:41:16.974 : en:00:41:16.974
00:48:16.310 : en:00:48:16.310
00:55:32.621 : en:00:55:32.621
01:01:22.429 : en:01:01:22.429
01:09:32.001 : en:01:09:32.001
01:17:23.013 : en:01:17:23.013
01:23:43.560 : en:01:23:43.560
01:30:27.881 : en:01:30:27.881
01:36:43.381 : en:01:36:43.381

Source Media Information

General
Unique ID : 230185420757235042590892567188192390760 (0xAD2C1976321A180FA741F6CB10186E68)
Complete name : The.Other.Guys.2010.Remastered.BluRay.1080p.DTS-HD.MA.5.1.AVC.REMUX-FraMeSToR.mkv
Format : Matroska
Format version : Version 4
File size : 28.4 GiB
Duration : 1 h 47 min
Overall bit rate mode : Variable
Overall bit rate : 37.8 Mb/s
Movie name : The.Other.Guys.2010.Remastered.BluRay.1080p.DTS-HD.MA.5.1.AVC.REMUX-FraMeSToR
Encoded date : UTC 2013-07-13 22:40:48
Writing application : mkvmerge v6.3.0 ('You can't stop me!') built on Jun 28 2013 20:09:41
Writing library : libebml v1.3.0 + libmatroska v1.4.0

Video
ID : 1
Format : AVC
Format/Info : Advanced Video Codec: Format profile : High@L4.1
Format settings : CABAC / 2 Ref Frames
Format settings, CABAC : Yes
Format settings, Reference frames : 2 frames
Codec ID : V_MPEG4/ISO/AVC
Duration : 1 h 47 min
Bit rate mode : Variable
Width : 1 920 pixels
Height : 1 080 pixels
Display aspect ratio : 16:9
Frame rate mode : Constant
Frame rate : 23.976 (24000/1001) FPS
Color space : YUV
Chroma subsampling : 4:2:0
Bit depth : 8 bits
Scan type : Progressive
Title : FraMeSToR MPEG-4 AVC Video / 34816 kbps / 1080p / 23.976 fps / 16:9 / High Profile 4.1
Default : Yes
Forced : No

Audio
ID : 2
Format : DTS XLL
Format/Info : Digital Theater Systems
Commercial name : DTS-HD Master Audio
Codec ID : A_DTS
Duration : 1 h 47 min
Bit rate mode : Variable
Channel(s) : 6 channels
Channel layout : C L R Ls Rs LFE
Sampling rate : 48.0 kHz
Frame rate : 93.750 FPS (512 SPF)
Bit depth : 24 bits
Compression mode : Lossless
Title : DTS-HD MA 5.1 / 48 kHz / 2776 kbps / 24-bit (DTS Core: 5.1 / 48 kHz / 1509 kbps / 24-bit)
Language : English
Default : Yes
Forced : No

Text #1
ID : 3
Format : PGS
Codec ID : S_HDMV/PGS
Codec ID/Info : Picture based subtitle format used on BDs/HD-DVDs
Title : English
Language : English
Default : No
Forced : No

Text #2
ID : 4
Format : PGS
Codec ID : S_HDMV/PGS
Codec ID/Info : Picture based subtitle format used on BDs/HD-DVDs
Title : English SDH
Language : English
Default : No
Forced : No

Text #3
ID : 5
Format : PGS
Codec ID : S_HDMV/PGS
Codec ID/Info : Picture based subtitle format used on BDs/HD-DVDs
Title : French
Language : French
Default : No
Forced : No

Text #4
ID : 6
Format : PGS
Codec ID : S_HDMV/PGS
Codec ID/Info : Picture based subtitle format used on BDs/HD-DVDs
Title : Spanish
Language : Spanish
Default : No
Forced : No

Menu
00:00:00.000 : en:00:00:00.000
00:09:15.805 : en:00:09:15.805
00:13:24.595 : en:00:13:24.595
00:18:59.138 : en:00:18:59.138
00:26:06.732 : en:00:26:06.732
00:31:09.326 : en:00:31:09.326
00:35:42.766 : en:00:35:42.766
00:41:16.974 : en:00:41:16.974
00:48:16.310 : en:00:48:16.310
00:55:32.621 : en:00:55:32.621
01:01:22.429 : en:01:01:22.429
01:09:32.001 : en:01:09:32.001
01:17:23.013 : en:01:17:23.013
01:23:43.560 : en:01:23:43.560
01:30:27.881 : en:01:30:27.881
01:36:43.381 : en:01:36:43.381

Files