Win a Date with Tad Hamilton! (2004) (1080p BDRip x265 10bit EAC3 5 1 English - JBENT)[TAoE]

A small-town girl wins a date with a male celebrity through a contest. When the date goes better than expected, a love triangle forms between the girl, the male celebrity, and the girl's best friend.

Year: 2004
Duration: 95 min
Release date: Friday 23rd January 2004
Genre: Comedy, Romance

Rating

5.6/10
(23846 Votes)

0

Your Rating

Stars:
Kate Bosworth, Josh Duhamel, Topher Grace, Nathan Lane

Win a Date with Tad Hamilton! (2004)

Quantization Parameter

Avg QP : 24.84
frame I: 1135, Avg QP:20.13 kb/s: 19215.23
frame P: 21038, Avg QP:21.27 kb/s: 13044.24
frame B: 116138, Avg QP:25.53 kb/s: 4069.82

Encode Media Information

General
Unique ID : 264217815721558009703260781083470802161 (0xC6C6801491ED57210AEAC88B19A72CF1)
Complete name : Win a Date with Tad Hamilton! (2004) (1080p BDRip x265 10bit EAC3 5.1 English - JBENT)[TAoE].mkv
Format : Matroska
Format version : Version 4
File size : 4.32 GiB
Duration : 1 h 36 min
Overall bit rate : 6 438 kb/s
Movie name : Win a Date with Tad Hamilton! (2004)
Encoded date : UTC 2024-07-07 02:32:44
Writing application : mkvmerge v81.0 ('Milliontown') 64-bit
Writing library : libebml v1.4.4 + libmatroska v1.7.1

Video
ID : 1
Format : HEVC
Format/Info : High Efficiency Video Coding
Format profile : Main 10@L4@Main
Codec ID : V_MPEGH/ISO/HEVC
Duration : 1 h 36 min
Bit rate : 5 560 kb/s
Width : 1 920 pixels
Height : 800 pixels
Display aspect ratio : 2.40:1
Frame rate mode : Constant
Frame rate : 23.976 (24000/1001) FPS
Color space : YUV
Chroma subsampling : 4:2:0
Bit depth : 10 bits
Bits/(Pixel*Frame) : 0.151
Stream size : 3.73 GiB (86%)
Writing library : x265 3.6+13+1-726aec126:[Windows][MSVC 1939][64 bit] 10bit
Encoding settings : cpuid=1111039 / frame-threads=4 / numa-pools=24 / wpp / no-pmode / no-pme / no-psnr / no-ssim / log-level=2 / input-csp=1 / input-res=1920x800 / interlace=0 / total-frames=138311 / level-idc=0 / high-tier=1 / uhd-bd=0 / ref=4 / no-allow-non-conformance / no-repeat-headers / annexb / no-aud / no-eob / no-eos / no-hrd / info / hash=0 / temporal-layers=0 / open-gop / min-keyint=23 / keyint=250 / gop-lookahead=0 / bframes=8 / b-adapt=2 / b-pyramid / bframe-bias=0 / rc-lookahead=80 / lookahead-slices=4 / scenecut=40 / no-hist-scenecut / radl=0 / no-splice / no-intra-refresh / ctu=64 / min-cu-size=8 / no-rect / no-amp / max-tu-size=32 / tu-inter-depth=1 / tu-intra-depth=1 / limit-tu=0 / rdoq-level=2 / dynamic-rd=0.00 / no-ssim-rd / signhide / no-tskip / nr-intra=0 / nr-inter=0 / no-constrained-intra / no-strong-intra-smoothing / max-merge=3 / limit-refs=3 / limit-modes / me=3 / subme=5 / merange=57 / temporal-mvp / no-frame-dup / no-hme / weightp / no-weightb / no-analyze-src-pics / deblock=0:0 / sao / no-sao-non-deblock / rd=4 / selective-sao=4 / no-early-skip / rskip / no-fast-intra / no-tskip-fast / no-cu-lossless / no-b-intra / no-splitrd-skip / rdpenalty=0 / psy-rd=1.30 / psy-rdoq=2.00 / no-rd-refine / no-lossless / cbqpoffs=0 / crqpoffs=0 / rc=crf / crf=20.0 / qcomp=0.60 / qpstep=4 / stats-write=0 / stats-read=0 / ipratio=1.40 / pbratio=1.30 / aq-mode=4 / aq-strength=1.10 / aq-bias-strength=1.00 / cutree / zone-count=0 / no-strict-cbr / qg-size=32 / no-rc-grain / qpmax=69 / qpmin=0 / no-const-vbv / sar=0 / overscan=0 / videoformat=5 / range=0 / colorprim=2 / transfer=2 / colormatrix=2 / chromaloc=0 / display-window=0 / cll=0,0 / min-luma=0 / max-luma=1023 / log2-max-poc-lsb=8 / vui-timing-info / vui-hrd-info / slices=1 / no-opt-qp-pps / no-opt-ref-list-length-pps / no-multi-pass-opt-rps / scenecut-bias=0.05 / no-opt-cu-delta-qp / no-aq-motion / no-hdr10 / no-hdr10-opt / no-dhdr10-opt / no-idr-recovery-sei / analysis-reuse-level=0 / analysis-save-reuse-level=0 / analysis-load-reuse-level=0 / scale-factor=0 / refine-intra=0 / refine-inter=0 / refine-mv=1 / refine-ctu-distortion=0 / no-limit-sao / ctu-info=0 / no-lowpass-dct / refine-analysis-type=0 / copy-pic=1 / max-ausize-factor=1.0 / no-dynamic-refine / no-single-sei / no-hevc-aq / no-svt / no-field / qp-adaptation-range=1.00 / scenecut-aware-qp=0 / conformance-window-offsets / right=0 / bottom=0 / decoder-max-rate=0 / no-vbv-live-multi-pass / no-mcstf / no-sbrc
Default : Yes
Forced : No

Audio
ID : 2
Format : E-AC-3
Format/Info : Enhanced AC-3
Commercial name : Dolby Digital Plus
Codec ID : A_EAC3
Duration : 1 h 36 min
Bit rate mode : Constant
Bit rate : 768 kb/s
Channel(s) : 6 channels
Channel layout : L R C LFE Ls Rs
Sampling rate : 48.0 kHz
Frame rate : 31.250 FPS (1536 SPF)
Compression mode : Lossy
Stream size : 528 MiB (12%)
Language : English
Service kind : Complete Main
Default : Yes
Forced : No

Text #1
ID : 3
Format : PGS
Muxing mode : zlib
Codec ID : S_HDMV/PGS
Codec ID/Info : Picture based subtitle format used on BDs/HD-DVDs
Duration : 1 h 28 min
Bit rate : 42.6 kb/s
Count of elements : 2346
Stream size : 26.9 MiB (1%)
Title : English
Language : English
Default : No
Forced : No

Text #2
ID : 4
Format : UTF-8
Codec ID : S_TEXT/UTF8
Codec ID/Info : UTF-8 Plain Text
Duration : 1 h 28 min
Bit rate : 63 b/s
Count of elements : 1173
Stream size : 41.3 KiB (0%)
Title : English (SRT)
Language : English
Default : No
Forced : No

Text #3
ID : 5
Format : PGS
Muxing mode : zlib
Codec ID : S_HDMV/PGS
Codec ID/Info : Picture based subtitle format used on BDs/HD-DVDs
Duration : 1 h 31 min
Bit rate : 51.9 kb/s
Count of elements : 3036
Stream size : 33.9 MiB (1%)
Title : English (SDH)
Language : English
Default : No
Forced : No

Text #4
ID : 6
Format : PGS
Muxing mode : zlib
Codec ID : S_HDMV/PGS
Codec ID/Info : Picture based subtitle format used on BDs/HD-DVDs
Duration : 1 h 30 min
Bit rate : 31.5 kb/s
Count of elements : 1952
Stream size : 20.3 MiB (0%)
Title : French (Canadian)
Language : French
Default : No
Forced : No

Text #5
ID : 7
Format : PGS
Muxing mode : zlib
Codec ID : S_HDMV/PGS
Codec ID/Info : Picture based subtitle format used on BDs/HD-DVDs
Duration : 1 h 30 min
Bit rate : 43.1 kb/s
Count of elements : 2112
Stream size : 27.7 MiB (1%)
Title : German
Language : German
Default : No
Forced : No

Text #6
ID : 8
Format : PGS
Muxing mode : zlib
Codec ID : S_HDMV/PGS
Codec ID/Info : Picture based subtitle format used on BDs/HD-DVDs
Duration : 1 h 28 min
Bit rate : 26.5 kb/s
Count of elements : 2368
Stream size : 16.7 MiB (0%)
Title : Japanese
Language : Japanese
Default : No
Forced : No

Text #7
ID : 9
Format : PGS
Muxing mode : zlib
Codec ID : S_HDMV/PGS
Codec ID/Info : Picture based subtitle format used on BDs/HD-DVDs
Duration : 1 h 30 min
Bit rate : 36.8 kb/s
Count of elements : 2098
Stream size : 23.9 MiB (1%)
Title : Spanish (Latin American)
Language : Spanish
Default : No
Forced : No

Menu
00:00:00.000 : en:1. Main Title
00:04:08.665 : en:2. Driving Too Fast
00:06:03.613 : en:3. Piggly Wiggly
00:09:19.184 : en:4. Bachelor Dinner
00:11:11.588 : en:5. Object of My Desire
00:12:43.471 : en:6. Won a Date
00:13:18.256 : en:7. Carnal Treasure
00:15:25.049 : en:8. Culture Shock
00:18:14.051 : en:9. The Big Date
00:26:13.280 : en:10. Tad's Place
00:30:07.472 : en:11. Back to Reality
00:34:36.157 : en:12. Following the Gut
00:38:43.571 : en:13. Bide-A-Way Motel
00:40:04.110 : en:14. The Obstacle Course
00:44:36.173 : en:15. Chocolate Martinis
00:49:05.860 : en:16. The Water Gap
00:55:27.658 : en:17. Down on the Farm
00:59:06.042 : en:18. Six Smiles
01:03:10.704 : en:19. Surprise Visit
01:09:48.351 : en:20. Great Love
01:18:52.019 : en:21. Leap of Faith
01:25:09.896 : en:22. Closing the Book
01:27:45.802 : en:23. The Last Dance
01:31:33.905 : en:24. End Credits

Source Media Information

General
Unique ID : 209354191919008877991082567399170068985 (0x9D80269595ADE14EFF3DEAA8F7CB51F9)
Complete name : Win.a.Date.with.Tad.Hamilton.2004.BluRay.1080p.DTS-HD.MA.5.1.AVC.REMUX-FraMeSToR.mkv
Format : Matroska
Format version : Version 4
File size : 26.1 GiB
Duration : 1 h 36 min
Overall bit rate mode : Variable
Overall bit rate : 38.8 Mb/s
Movie name : Win a Date with Tad Hamilton! (2004)
Encoded date : UTC 2023-04-30 11:43:57
Writing application : mkvmerge v74.0.0 ('You Oughta Know') 64-bit
Writing library : libebml v1.4.4 + libmatroska v1.7.1
IMDB : tt0335559
TMDB : movie/13476

Video
ID : 1
Format : AVC
Format/Info : Advanced Video Codec: Format profile : High@L4.1
Format settings : CABAC / 2 Ref Frames
Format settings, CABAC : Yes
Format settings, Reference frames : 2 frames
Codec ID : V_MPEG4/ISO/AVC
Duration : 1 h 36 min
Bit rate mode : Variable
Bit rate : 35.0 Mb/s
Width : 1 920 pixels
Height : 1 080 pixels
Display aspect ratio : 16:9
Frame rate mode : Constant
Frame rate : 23.976 (24000/1001) FPS
Color space : YUV
Chroma subsampling : 4:2:0
Bit depth : 8 bits
Scan type : Progressive
Bits/(Pixel*Frame) : 0.705
Stream size : 23.5 GiB (90%)
Default : Yes
Forced : No

Audio
ID : 2
Format : DTS XLL
Format/Info : Digital Theater Systems
Commercial name : DTS-HD Master Audio
Codec ID : A_DTS
Duration : 1 h 36 min
Bit rate mode : Variable
Bit rate : 3 580 kb/s
Channel(s) : 6 channels
Channel layout : C L R Ls Rs LFE
Sampling rate : 48.0 kHz
Frame rate : 93.750 FPS (512 SPF)
Bit depth : 24 bits
Compression mode : Lossless
Stream size : 2.40 GiB (9%)
Title : DTS-HD MA 5.1
Language : English
Default : Yes
Forced : No

Text #1
ID : 3
Format : PGS
Codec ID : S_HDMV/PGS
Codec ID/Info : Picture based subtitle format used on BDs/HD-DVDs
Duration : 1 h 28 min
Bit rate : 42.6 kb/s
Count of elements : 2346
Stream size : 26.9 MiB (0%)
Title : English
Language : English
Default : No
Forced : No

Text #2
ID : 4
Format : UTF-8
Codec ID : S_TEXT/UTF8
Codec ID/Info : UTF-8 Plain Text
Duration : 1 h 28 min
Bit rate : 63 b/s
Count of elements : 1173
Stream size : 41.3 KiB (0%)
Title : English (SRT)
Language : English
Default : No
Forced : No

Text #3
ID : 5
Format : PGS
Codec ID : S_HDMV/PGS
Codec ID/Info : Picture based subtitle format used on BDs/HD-DVDs
Duration : 1 h 31 min
Bit rate : 51.9 kb/s
Count of elements : 3036
Stream size : 33.9 MiB (0%)
Title : English (SDH)
Language : English
Default : No
Forced : No

Text #4
ID : 6
Format : PGS
Codec ID : S_HDMV/PGS
Codec ID/Info : Picture based subtitle format used on BDs/HD-DVDs
Duration : 1 h 30 min
Bit rate : 31.5 kb/s
Count of elements : 1952
Stream size : 20.3 MiB (0%)
Title : French (Canadian)
Language : French
Default : No
Forced : No

Text #5
ID : 7
Format : PGS
Codec ID : S_HDMV/PGS
Codec ID/Info : Picture based subtitle format used on BDs/HD-DVDs
Duration : 1 h 30 min
Bit rate : 43.1 kb/s
Count of elements : 2112
Stream size : 27.7 MiB (0%)
Title : German
Language : German
Default : No
Forced : No

Text #6
ID : 8
Format : PGS
Codec ID : S_HDMV/PGS
Codec ID/Info : Picture based subtitle format used on BDs/HD-DVDs
Duration : 1 h 28 min
Bit rate : 26.5 kb/s
Count of elements : 2368
Stream size : 16.7 MiB (0%)
Title : Japanese
Language : Japanese
Default : No
Forced : No

Text #7
ID : 9
Format : PGS
Codec ID : S_HDMV/PGS
Codec ID/Info : Picture based subtitle format used on BDs/HD-DVDs
Duration : 1 h 30 min
Bit rate : 36.8 kb/s
Count of elements : 2098
Stream size : 23.9 MiB (0%)
Title : Spanish (Latin American)
Language : Spanish
Default : No
Forced : No

Menu
00:00:00.000 : en:1. Main Title
00:04:08.665 : en:2. Driving Too Fast
00:06:03.613 : en:3. Piggly Wiggly
00:09:19.184 : en:4. Bachelor Dinner
00:11:11.588 : en:5. Object of My Desire
00:12:43.471 : en:6. Won a Date
00:13:18.256 : en:7. Carnal Treasure
00:15:25.049 : en:8. Culture Shock
00:18:14.051 : en:9. The Big Date
00:26:13.280 : en:10. Tad's Place
00:30:07.472 : en:11. Back to Reality
00:34:36.157 : en:12. Following the Gut
00:38:43.571 : en:13. Bide-A-Way Motel
00:40:04.110 : en:14. The Obstacle Course
00:44:36.173 : en:15. Chocolate Martinis
00:49:05.860 : en:16. The Water Gap
00:55:27.658 : en:17. Down on the Farm
00:59:06.042 : en:18. Six Smiles
01:03:10.704 : en:19. Surprise Visit
01:09:48.351 : en:20. Great Love
01:18:52.019 : en:21. Leap of Faith
01:25:09.896 : en:22. Closing the Book
01:27:45.802 : en:23. The Last Dance
01:31:33.905 : en:24. End Credits

Files