Cruella (2021) (1080p BDRip x265 10bit EAC3 7 1 English - JBENT)[TAoE]

A live-action prequel feature film following a young Cruella de Vil.

Year: 2021
Duration: 134 min
Release date: Wednesday 23rd June 2021
Genre: Comedy, Crime

Rating

7.3/10
(256829 Votes)

0

Your Rating

Stars:
Emma Stone, Emma Thompson, Joel Fry, Paul Walter Hauser, John McCrea, Emily Beecham, Mark Strong, Kayvan Novak

Cruella (2021)

Quantization Parameter

Avg QP : 23.91
frame I: 2401, Avg QP:18.98 kb/s: 25769.94
frame P: 33435, Avg QP:20.41 kb/s: 13260.09
frame B: 156828, Avg QP:24.73 kb/s: 2818.75

Encode Media Information

General
Unique ID : 81281693294727628864713777135223548401 (0x3D2648E267F01F4D167C4A30CACBA9F1)
Complete name : Cruella (2021) (1080p BDRip x265 10bit EAC3 7.1 English - JBENT)[TAoE].mkv
Format : Matroska
Format version : Version 4
File size : 5.61 GiB
Duration : 2 h 13 min
Overall bit rate : 5 993 kb/s
Movie name : Cruella (2021)
Encoded date : UTC 2024-07-07 03:10:02
Writing application : mkvmerge v81.0 ('Milliontown') 64-bit
Writing library : libebml v1.4.4 + libmatroska v1.7.1

Video
ID : 1
Format : HEVC
Format/Info : High Efficiency Video Coding
Format profile : Main 10@L4@Main
Codec ID : V_MPEGH/ISO/HEVC
Duration : 2 h 13 min
Bit rate : 4 918 kb/s
Width : 1 920 pixels
Height : 1 040 pixels
Display aspect ratio : 1.85:1
Frame rate mode : Constant
Frame rate : 23.976 (24000/1001) FPS
Color space : YUV
Chroma subsampling : 4:2:0
Bit depth : 10 bits
Bits/(Pixel*Frame) : 0.103
Stream size : 4.60 GiB (82%)
Writing library : x265 3.6+13+1-726aec126:[Windows][MSVC 1939][64 bit] 10bit
Encoding settings : cpuid=1111039 / frame-threads=4 / numa-pools=24 / wpp / no-pmode / no-pme / no-psnr / no-ssim / log-level=2 / input-csp=1 / input-res=1920x1040 / interlace=0 / total-frames=192664 / level-idc=0 / high-tier=1 / uhd-bd=0 / ref=4 / no-allow-non-conformance / no-repeat-headers / annexb / no-aud / no-eob / no-eos / no-hrd / info / hash=0 / temporal-layers=0 / open-gop / min-keyint=23 / keyint=250 / gop-lookahead=0 / bframes=8 / b-adapt=2 / b-pyramid / bframe-bias=0 / rc-lookahead=80 / lookahead-slices=4 / scenecut=40 / no-hist-scenecut / radl=0 / no-splice / no-intra-refresh / ctu=64 / min-cu-size=8 / no-rect / no-amp / max-tu-size=32 / tu-inter-depth=1 / tu-intra-depth=1 / limit-tu=0 / rdoq-level=2 / dynamic-rd=0.00 / no-ssim-rd / signhide / no-tskip / nr-intra=0 / nr-inter=0 / no-constrained-intra / no-strong-intra-smoothing / max-merge=3 / limit-refs=3 / limit-modes / me=3 / subme=5 / merange=57 / temporal-mvp / no-frame-dup / no-hme / weightp / no-weightb / no-analyze-src-pics / deblock=0:0 / sao / no-sao-non-deblock / rd=4 / selective-sao=4 / no-early-skip / rskip / no-fast-intra / no-tskip-fast / no-cu-lossless / no-b-intra / no-splitrd-skip / rdpenalty=0 / psy-rd=1.30 / psy-rdoq=2.00 / no-rd-refine / no-lossless / cbqpoffs=0 / crqpoffs=0 / rc=crf / crf=19.5 / qcomp=0.60 / qpstep=4 / stats-write=0 / stats-read=0 / ipratio=1.40 / pbratio=1.30 / aq-mode=4 / aq-strength=1.10 / aq-bias-strength=1.00 / cutree / zone-count=0 / no-strict-cbr / qg-size=32 / no-rc-grain / qpmax=69 / qpmin=0 / no-const-vbv / sar=0 / overscan=0 / videoformat=5 / range=0 / colorprim=2 / transfer=2 / colormatrix=2 / chromaloc=0 / display-window=0 / cll=0,0 / min-luma=0 / max-luma=1023 / log2-max-poc-lsb=8 / vui-timing-info / vui-hrd-info / slices=1 / no-opt-qp-pps / no-opt-ref-list-length-pps / no-multi-pass-opt-rps / scenecut-bias=0.05 / no-opt-cu-delta-qp / no-aq-motion / no-hdr10 / no-hdr10-opt / no-dhdr10-opt / no-idr-recovery-sei / analysis-reuse-level=0 / analysis-save-reuse-level=0 / analysis-load-reuse-level=0 / scale-factor=0 / refine-intra=0 / refine-inter=0 / refine-mv=1 / refine-ctu-distortion=0 / no-limit-sao / ctu-info=0 / no-lowpass-dct / refine-analysis-type=0 / copy-pic=1 / max-ausize-factor=1.0 / no-dynamic-refine / no-single-sei / no-hevc-aq / no-svt / no-field / qp-adaptation-range=1.00 / scenecut-aware-qp=0 / conformance-window-offsets / right=0 / bottom=0 / decoder-max-rate=0 / no-vbv-live-multi-pass / no-mcstf / no-sbrc
Default : Yes
Forced : No

Audio
ID : 2
Format : E-AC-3
Format/Info : Enhanced AC-3
Commercial name : Dolby Digital Plus
Format settings : Dolby Surround EX
Codec ID : A_EAC3
Duration : 2 h 13 min
Bit rate mode : Constant
Bit rate : 1 024 kb/s
Channel(s) : 8 channels
Channel layout : L R C LFE Ls Rs Lb Rb
Sampling rate : 48.0 kHz
Frame rate : 31.250 FPS (1536 SPF)
Compression mode : Lossy
Stream size : 981 MiB (17%)
Language : English
Service kind : Complete Main
Default : Yes
Forced : No

Text #1
ID : 3
Format : PGS
Muxing mode : zlib
Codec ID : S_HDMV/PGS
Codec ID/Info : Picture based subtitle format used on BDs/HD-DVDs
Duration : 2 h 11 min
Bit rate : 35.0 kb/s
Count of elements : 3804
Stream size : 33.0 MiB (1%)
Title : English (SDH)
Language : English
Default : No
Forced : No

Text #2
ID : 4
Format : PGS
Muxing mode : zlib
Codec ID : S_HDMV/PGS
Codec ID/Info : Picture based subtitle format used on BDs/HD-DVDs
Duration : 2 h 13 min
Bit rate : 26.8 kb/s
Count of elements : 2313
Stream size : 25.5 MiB (0%)
Title : Danish
Language : Danish
Default : No
Forced : No

Text #3
ID : 5
Format : PGS
Muxing mode : zlib
Codec ID : S_HDMV/PGS
Codec ID/Info : Picture based subtitle format used on BDs/HD-DVDs
Duration : 2 h 13 min
Bit rate : 24.0 kb/s
Count of elements : 2510
Stream size : 22.9 MiB (0%)
Title : Dutch
Language : Dutch
Default : No
Forced : No

Text #4
ID : 6
Format : PGS
Muxing mode : zlib
Codec ID : S_HDMV/PGS
Codec ID/Info : Picture based subtitle format used on BDs/HD-DVDs
Duration : 2 h 13 min
Bit rate : 28.7 kb/s
Count of elements : 3010
Stream size : 27.3 MiB (0%)
Title : Finnish
Language : Finnish
Default : No
Forced : No

Text #5
ID : 7
Format : PGS
Muxing mode : zlib
Codec ID : S_HDMV/PGS
Codec ID/Info : Picture based subtitle format used on BDs/HD-DVDs
Duration : 2 h 13 min
Bit rate : 25.3 kb/s
Count of elements : 3020
Stream size : 24.1 MiB (0%)
Title : Norwegian
Language : Norwegian
Default : No
Forced : No

Text #6
ID : 8
Format : PGS
Muxing mode : zlib
Codec ID : S_HDMV/PGS
Codec ID/Info : Picture based subtitle format used on BDs/HD-DVDs
Duration : 2 h 13 min
Bit rate : 24.4 kb/s
Count of elements : 2352
Stream size : 23.2 MiB (0%)
Title : Swedish
Language : Swedish
Default : No
Forced : No

Menu
00:00:00.000 : en:Chapter 1
00:05:08.266 : en:Chapter 2
00:15:21.295 : en:Chapter 3
00:25:48.881 : en:Chapter 4
00:30:55.103 : en:Chapter 5
00:34:31.194 : en:Chapter 6
00:35:42.974 : en:Chapter 7
00:39:34.998 : en:Chapter 8
00:42:35.595 : en:Chapter 9
00:46:27.451 : en:Chapter 10
00:52:29.396 : en:Chapter 11
00:58:15.659 : en:Chapter 12
01:04:44.089 : en:Chapter 13
01:15:05.126 : en:Chapter 14
01:17:16.715 : en:Chapter 15
01:21:10.741 : en:Chapter 16
01:23:12.738 : en:Chapter 17
01:26:23.512 : en:Chapter 18
01:30:43.897 : en:Chapter 19
01:37:40.813 : en:Chapter 20
01:47:32.404 : en:Chapter 21
01:55:29.965 : en:Chapter 22
02:00:19.629 : en:Chapter 23
02:02:48.570 : en:Chapter 24
02:04:32.215 : en:Chapter 25
02:06:18.696 : en:Chapter 26
02:07:25.388 : en:Chapter 27

Source Media Information

General
Unique ID : 318885561794429263766999872503838698522 (0xEFE7200F06685B7D6F4C4B7BD4946C1A)
Complete name : Cruella.2021.BluRay.1080p.DTS-HD.MA.7.1.AVC.REMUX-FraMeSToR.mkv
Format : Matroska
Format version : Version 4
File size : 30.2 GiB
Duration : 2 h 13 min
Overall bit rate mode : Variable
Overall bit rate : 32.2 Mb/s
Movie name : Cruella (2021)
Encoded date : UTC 2021-08-11 02:09:30
Writing application : mkvmerge v55.0.0 ('Waiting For Space') 64-bit
Writing library : libebml v1.4.2 + libmatroska v1.6.4
IMDB : tt3228774
TMDB : movie/337404

Video
ID : 1
Format : AVC
Format/Info : Advanced Video Codec: Format profile : High@L4.1
Format settings : CABAC / 4 Ref Frames
Format settings, CABAC : Yes
Format settings, Reference frames : 4 frames
Codec ID : V_MPEG4/ISO/AVC
Duration : 2 h 13 min
Bit rate mode : Variable
Bit rate : 26.8 Mb/s
Maximum bit rate : 33.0 Mb/s
Width : 1 920 pixels
Height : 1 080 pixels
Display aspect ratio : 16:9
Frame rate mode : Constant
Frame rate : 23.976 (24000/1001) FPS
Color space : YUV
Chroma subsampling : 4:2:0
Bit depth : 8 bits
Scan type : Progressive
Bits/(Pixel*Frame) : 0.539
Stream size : 25.1 GiB (83%)
Default : Yes
Forced : No

Audio
ID : 2
Format : DTS XLL
Format/Info : Digital Theater Systems
Commercial name : DTS-HD Master Audio
Codec ID : A_DTS
Duration : 2 h 13 min
Bit rate mode : Variable
Bit rate : 5 268 kb/s
Channel(s) : 8 channels
Channel layout : C L R LFE Lb Rb Lss Rss
Sampling rate : 48.0 kHz
Frame rate : 93.750 FPS (512 SPF)
Bit depth : 24 bits
Compression mode : Lossless
Stream size : 4.93 GiB (16%)
Title : DTS-HD MA 7.1
Language : English
Default : Yes
Forced : No

Text #1
ID : 3
Format : PGS
Codec ID : S_HDMV/PGS
Codec ID/Info : Picture based subtitle format used on BDs/HD-DVDs
Duration : 2 h 11 min
Bit rate : 35.0 kb/s
Count of elements : 3804
Stream size : 33.0 MiB (0%)
Title : English (SDH)
Language : English
Default : No
Forced : No

Text #2
ID : 4
Format : PGS
Codec ID : S_HDMV/PGS
Codec ID/Info : Picture based subtitle format used on BDs/HD-DVDs
Duration : 2 h 13 min
Bit rate : 26.8 kb/s
Count of elements : 2313
Stream size : 25.5 MiB (0%)
Title : Danish
Language : Danish
Default : No
Forced : No

Text #3
ID : 5
Format : PGS
Codec ID : S_HDMV/PGS
Codec ID/Info : Picture based subtitle format used on BDs/HD-DVDs
Duration : 2 h 13 min
Bit rate : 24.0 kb/s
Count of elements : 2510
Stream size : 22.9 MiB (0%)
Title : Dutch
Language : Dutch
Default : No
Forced : No

Text #4
ID : 6
Format : PGS
Codec ID : S_HDMV/PGS
Codec ID/Info : Picture based subtitle format used on BDs/HD-DVDs
Duration : 2 h 13 min
Bit rate : 28.7 kb/s
Count of elements : 3010
Stream size : 27.3 MiB (0%)
Title : Finnish
Language : Finnish
Default : No
Forced : No

Text #5
ID : 7
Format : PGS
Codec ID : S_HDMV/PGS
Codec ID/Info : Picture based subtitle format used on BDs/HD-DVDs
Duration : 2 h 13 min
Bit rate : 25.3 kb/s
Count of elements : 3020
Stream size : 24.1 MiB (0%)
Title : Norwegian
Language : Norwegian
Default : No
Forced : No

Text #6
ID : 8
Format : PGS
Codec ID : S_HDMV/PGS
Codec ID/Info : Picture based subtitle format used on BDs/HD-DVDs
Duration : 2 h 13 min
Bit rate : 24.4 kb/s
Count of elements : 2352
Stream size : 23.2 MiB (0%)
Title : Swedish
Language : Swedish
Default : No
Forced : No

Menu
00:00:00.000 : en:Chapter 1
00:05:08.266 : en:Chapter 2
00:15:21.295 : en:Chapter 3
00:25:48.881 : en:Chapter 4
00:30:55.103 : en:Chapter 5
00:34:31.194 : en:Chapter 6
00:35:42.974 : en:Chapter 7
00:39:34.998 : en:Chapter 8
00:42:35.595 : en:Chapter 9
00:46:27.451 : en:Chapter 10
00:52:29.396 : en:Chapter 11
00:58:15.659 : en:Chapter 12
01:04:44.089 : en:Chapter 13
01:15:05.126 : en:Chapter 14
01:17:16.715 : en:Chapter 15
01:21:10.741 : en:Chapter 16
01:23:12.738 : en:Chapter 17
01:26:23.512 : en:Chapter 18
01:30:43.897 : en:Chapter 19
01:37:40.813 : en:Chapter 20
01:47:32.404 : en:Chapter 21
01:55:29.965 : en:Chapter 22
02:00:19.629 : en:Chapter 23
02:02:48.570 : en:Chapter 24
02:04:32.215 : en:Chapter 25
02:06:18.696 : en:Chapter 26
02:07:25.388 : en:Chapter 27

Files