Wrath of Man (2021) (1080p BDRip x265 10bit EAC3 5 1 English - JBENT)[TAoE]

The plot follows H, a cold and mysterious character working at a cash truck company responsible for moving hundreds of millions of dollars around Los Angeles each week.

Year: 2021
Duration: 119 min
Release date: Wednesday 16th June 2021
Genre: Action, Thriller

Rating

7.1/10
(199695 Votes)

0

Your Rating

Stars:
Jason Statham, Holt McCallany, Rocci Williams, Josh Hartnett, Jeffrey Donovan, Scott Eastwood, Andy Garcia, Deobia Oparei

Wrath of Man (2021)

Quantization Parameter

Avg QP : 23.51
frame I: 1607, Avg QP:18.79 kb/s: 21772.92
frame P: 27966, Avg QP:19.80 kb/s: 11669.80
frame B: 141535, Avg QP:24.30 kb/s: 3349.88

Encode Media Information

General
Unique ID : 8821500950156178234067934901230435966 (0x6A2F59399634D9C532A8E24A058FE7E)
Complete name : Wrath of Man (2021) (1080p BDRip x265 10bit EAC3 5.1 English - JBENT)[TAoE].mkv
Format : Matroska
Format version : Version 4
File size : 4.71 GiB
Duration : 1 h 58 min
Overall bit rate : 5 668 kb/s
Movie name : Wrath of Man (2021)
Encoded date : UTC 2024-07-07 03:23:53
Writing application : mkvmerge v81.0 ('Milliontown') 64-bit
Writing library : libebml v1.4.4 + libmatroska v1.7.1

Video
ID : 1
Format : HEVC
Format/Info : High Efficiency Video Coding
Format profile : Main 10@L4@Main
Codec ID : V_MPEGH/ISO/HEVC
Duration : 1 h 58 min
Bit rate : 4 884 kb/s
Width : 1 920 pixels
Height : 804 pixels
Display aspect ratio : 2.40:1
Frame rate mode : Constant
Frame rate : 23.976 (24000/1001) FPS
Color space : YUV
Chroma subsampling : 4:2:0
Bit depth : 10 bits
Bits/(Pixel*Frame) : 0.132
Stream size : 4.06 GiB (86%)
Writing library : x265 3.6+13+1-726aec126:[Windows][MSVC 1939][64 bit] 10bit
Encoding settings : cpuid=1111039 / frame-threads=4 / numa-pools=24 / wpp / no-pmode / no-pme / no-psnr / no-ssim / log-level=2 / input-csp=1 / input-res=1920x804 / interlace=0 / total-frames=171108 / level-idc=0 / high-tier=1 / uhd-bd=0 / ref=4 / no-allow-non-conformance / no-repeat-headers / annexb / no-aud / no-eob / no-eos / no-hrd / info / hash=0 / temporal-layers=0 / open-gop / min-keyint=23 / keyint=250 / gop-lookahead=0 / bframes=8 / b-adapt=2 / b-pyramid / bframe-bias=0 / rc-lookahead=80 / lookahead-slices=4 / scenecut=40 / no-hist-scenecut / radl=0 / no-splice / no-intra-refresh / ctu=64 / min-cu-size=8 / no-rect / no-amp / max-tu-size=32 / tu-inter-depth=1 / tu-intra-depth=1 / limit-tu=0 / rdoq-level=2 / dynamic-rd=0.00 / no-ssim-rd / signhide / no-tskip / nr-intra=0 / nr-inter=0 / no-constrained-intra / no-strong-intra-smoothing / max-merge=3 / limit-refs=3 / limit-modes / me=3 / subme=5 / merange=57 / temporal-mvp / no-frame-dup / no-hme / weightp / no-weightb / no-analyze-src-pics / deblock=0:0 / sao / no-sao-non-deblock / rd=4 / selective-sao=4 / no-early-skip / rskip / no-fast-intra / no-tskip-fast / no-cu-lossless / no-b-intra / no-splitrd-skip / rdpenalty=0 / psy-rd=1.30 / psy-rdoq=2.00 / no-rd-refine / no-lossless / cbqpoffs=0 / crqpoffs=0 / rc=crf / crf=19.0 / qcomp=0.60 / qpstep=4 / stats-write=0 / stats-read=0 / ipratio=1.40 / pbratio=1.30 / aq-mode=4 / aq-strength=1.10 / aq-bias-strength=1.00 / cutree / zone-count=0 / no-strict-cbr / qg-size=32 / no-rc-grain / qpmax=69 / qpmin=0 / no-const-vbv / sar=0 / overscan=0 / videoformat=5 / range=0 / colorprim=2 / transfer=2 / colormatrix=2 / chromaloc=0 / display-window=0 / cll=0,0 / min-luma=0 / max-luma=1023 / log2-max-poc-lsb=8 / vui-timing-info / vui-hrd-info / slices=1 / no-opt-qp-pps / no-opt-ref-list-length-pps / no-multi-pass-opt-rps / scenecut-bias=0.05 / no-opt-cu-delta-qp / no-aq-motion / no-hdr10 / no-hdr10-opt / no-dhdr10-opt / no-idr-recovery-sei / analysis-reuse-level=0 / analysis-save-reuse-level=0 / analysis-load-reuse-level=0 / scale-factor=0 / refine-intra=0 / refine-inter=0 / refine-mv=1 / refine-ctu-distortion=0 / no-limit-sao / ctu-info=0 / no-lowpass-dct / refine-analysis-type=0 / copy-pic=1 / max-ausize-factor=1.0 / no-dynamic-refine / no-single-sei / no-hevc-aq / no-svt / no-field / qp-adaptation-range=1.00 / scenecut-aware-qp=0 / conformance-window-offsets / right=0 / bottom=0 / decoder-max-rate=0 / no-vbv-live-multi-pass / no-mcstf / no-sbrc
Default : Yes
Forced : No

Audio
ID : 2
Format : E-AC-3
Format/Info : Enhanced AC-3
Commercial name : Dolby Digital Plus
Codec ID : A_EAC3
Duration : 1 h 58 min
Bit rate mode : Constant
Bit rate : 768 kb/s
Channel(s) : 6 channels
Channel layout : L R C LFE Ls Rs
Sampling rate : 48.0 kHz
Frame rate : 31.250 FPS (1536 SPF)
Compression mode : Lossy
Stream size : 653 MiB (14%)
Language : English
Service kind : Complete Main
Default : Yes
Forced : No

Text
ID : 3
Format : PGS
Muxing mode : zlib
Codec ID : S_HDMV/PGS
Codec ID/Info : Picture based subtitle format used on BDs/HD-DVDs
Duration : 1 h 51 min
Bit rate : 36.2 kb/s
Count of elements : 3020
Stream size : 28.8 MiB (1%)
Title : SDH
Language : English
Default : No
Forced : No

Menu
00:00:00.000 : en:Chapter 1
00:05:55.188 : en:Chapter 2
00:13:08.121 : en:Chapter 3
00:19:51.524 : en:Chapter 4
00:29:30.435 : en:Chapter 5
00:38:33.228 : en:Chapter 6
00:47:33.684 : en:Chapter 7
00:55:34.998 : en:Chapter 8
01:02:41.299 : en:Chapter 9
01:10:36.107 : en:Chapter 10
01:19:03.530 : en:Chapter 11
01:25:57.819 : en:Chapter 12
01:34:15.358 : en:Chapter 13
01:44:04.989 : en:Chapter 14
01:53:03.986 : en:Chapter 15

Source Media Information

General
Unique ID : 62341428666725060670487568402978614957 (0x2EE685BD9CE483DB4A9B9EB2E176AEAD)
Complete name : Wrath.of.Man.2021.1080p.BluRay.REMUX.AVC.DTS-HD.MA.5.1-EPSiLON.mkv
Format : Matroska
Format version : Version 4
File size : 34.6 GiB
Duration : 1 h 58 min
Overall bit rate mode : Variable
Overall bit rate : 41.6 Mb/s
Movie name : Wrath of Man (2021)
Encoded date : UTC 2021-07-14 03:13:48
Writing application : mkvmerge v53.0.0 ('Fool's Gold') 64-bit
Writing library : libebml v1.4.1 + libmatroska v1.6.2
IMDB : tt11083552
TMDB : movie/637649

Video
ID : 1
Format : AVC
Format/Info : Advanced Video Codec: Format profile : High@L4.1
Format settings : CABAC / 4 Ref Frames
Format settings, CABAC : Yes
Format settings, Reference frames : 4 frames
Format settings, GOP : M=3, N=12
Codec ID : V_MPEG4/ISO/AVC
Duration : 1 h 58 min
Bit rate mode : Variable
Bit rate : 37.9 Mb/s
Maximum bit rate : 39.5 Mb/s
Width : 1 920 pixels
Height : 1 080 pixels
Display aspect ratio : 16:9
Frame rate mode : Constant
Frame rate : 23.976 (24000/1001) FPS
Color space : YUV
Chroma subsampling : 4:2:0
Bit depth : 8 bits
Scan type : Progressive
Bits/(Pixel*Frame) : 0.763
Stream size : 31.5 GiB (91%)
Title : MPEG-4 AVC Video / 38337 kbps / 1080p / 23.976 fps / 16:9 / High Profile 4.1
Language : English
Default : Yes
Forced : No

Audio
ID : 2
Format : DTS XLL
Format/Info : Digital Theater Systems
Commercial name : DTS-HD Master Audio
Codec ID : A_DTS
Duration : 1 h 58 min
Bit rate mode : Variable
Bit rate : 3 673 kb/s
Channel(s) : 6 channels
Channel layout : C L R Ls Rs LFE
Sampling rate : 48.0 kHz
Frame rate : 93.750 FPS (512 SPF)
Bit depth : 24 bits
Compression mode : Lossless
Stream size : 3.05 GiB (9%)
Title : DTS-HD Master Audio / 5.1 / 48 kHz / 3673 kbps / 24-bit
Language : English
Default : Yes
Forced : No

Text
ID : 3
Format : PGS
Codec ID : S_HDMV/PGS
Codec ID/Info : Picture based subtitle format used on BDs/HD-DVDs
Duration : 1 h 51 min
Bit rate : 36.2 kb/s
Count of elements : 3020
Stream size : 28.8 MiB (0%)
Title : SDH
Language : English
Default : No
Forced : No

Menu
00:00:00.000 : en:Chapter 1
00:05:55.188 : en:Chapter 2
00:13:08.121 : en:Chapter 3
00:19:51.524 : en:Chapter 4
00:29:30.435 : en:Chapter 5
00:38:33.228 : en:Chapter 6
00:47:33.684 : en:Chapter 7
00:55:34.998 : en:Chapter 8
01:02:41.299 : en:Chapter 9
01:10:36.107 : en:Chapter 10
01:19:03.530 : en:Chapter 11
01:25:57.819 : en:Chapter 12
01:34:15.358 : en:Chapter 13
01:44:04.989 : en:Chapter 14
01:53:03.986 : en:Chapter 15

Files