The Boy with Green Hair 1948 1080p BluRay DDP 2 0 H 265-iVy

Peter Frye, typical American boy, is orphaned when his parents are caught in the London Blitz. He is not told of their fate, but shuttled from one selfish relative to the next, ending with "e;Gramp,"e; a kindly ex-vaudevillean. Peter and Gramp, both fond of "e;Irish bulls,"e; get along fine; but the morning after Peter finally learns he's an orphan, his hair spontaneously turns green! The absurd over-reactions of stupid people overturn his life as the story becomes a parable. Written by Rod Crawford

Episode Title: The Boy with Green Hair
Episode Air date: Friday 10th February 1967
Genre: Comedy, Drama, Family

Rating

6.7/10
(3073 Votes)

0

Your Rating

Stars: Pat O'Brien,Robert Ryan,Barbara Hale,Dean Stockwell,Richard Lyon,Walter Catlett,Samuel S. Hinds,Regis Toomey

General
Unique ID : 160711620085712161209374793147798137293 (0x78E7EEA19B08D9FEE85AF9B8520629CD)
Complete name : The.Boy.with.Green.Hair.1948.1080p.BluRay.DDP.2.0.H.265-iVy.mkv
Format : Matroska
Format version : Version 4
File size : 1.06 GiB
Duration : 1 h 22 min
Overall bit rate : 1 844 kb/s
Frame rate : 23.976 FPS
Encoded date : 2023-06-26 01:34:54 UTC
Writing application : HandBrake 1.5.1 2022011000
Writing library : Lavf58.76.100
ErrorDetectionType : Per level 1

Video
ID : 1
Format : HEVC
Format/Info : High Efficiency Video Coding
Format profile : Main@L4@Main
Codec ID : V_MPEGH/ISO/HEVC
Duration : 1 h 22 min
Bit rate : 1 647 kb/s
Width : 1 480 pixels
Height : 1 080 pixels
Display aspect ratio : 1.370
Frame rate mode : Constant
Frame rate : 23.976 (24000/1001) FPS
Color space : YUV
Chroma subsampling : 4:2:0 (Type 0)
Bit depth : 8 bits
Bits/(Pixel*Frame) : 0.043
Stream size : 966 MiB (89%)
Writing library : x265 3.5+1-f0c1022b6:[Windows][GCC 10.2.0][64 bit] 8bit+10bit+12bit
Encoding settings : cpuid=1111039 / frame-threads=5 / numa-pools=32 / wpp / no-pmode / no-pme / no-psnr / no-ssim / log-level=2 / input-csp=1 / input-res=1480x1080 / interlace=0 / total-frames=0 / level-idc=0 / high-tier=1 / uhd-bd=0 / ref=4 / no-allow-non-conformance / no-repeat-headers / annexb / no-aud / no-hrd / info / hash=0 / no-temporal-layers / open-gop / min-keyint=24 / keyint=240 / gop-lookahead=0 / bframes=4 / b-adapt=2 / b-pyramid / bframe-bias=0 / rc-lookahead=25 / lookahead-slices=4 / scenecut=40 / hist-scenecut=0 / radl=0 / no-splice / no-intra-refresh / ctu=64 / min-cu-size=8 / rect / no-amp / max-tu-size=32 / tu-inter-depth=1 / tu-intra-depth=1 / limit-tu=0 / rdoq-level=2 / dynamic-rd=0.00 / no-ssim-rd / signhide / no-tskip / nr-intra=0 / nr-inter=0 / no-constrained-intra / strong-intra-smoothing / max-merge=3 / limit-refs=3 / limit-modes / me=3 / subme=3 / merange=57 / temporal-mvp / no-frame-dup / no-hme / weightp / no-weightb / no-analyze-src-pics / deblock=0:0 / sao / no-sao-non-deblock / rd=4 / selective-sao=4 / no-early-skip / rskip / no-fast-intra / no-tskip-fast / no-cu-lossless / no-b-intra / no-splitrd-skip / rdpenalty=0 / psy-rd=2.00 / psy-rdoq=1.00 / no-rd-refine / no-lossless / cbqpoffs=0 / crqpoffs=0 / rc=crf / crf=23.0 / qcomp=0.60 / qpstep=4 / stats-write=0 / stats-read=0 / ipratio=1.40 / pbratio=1.30 / aq-mode=2 / aq-strength=1.00 / cutree / zone-count=0 / no-strict-cbr / qg-size=32 / no-rc-grain / qpmax=69 / qpmin=0 / no-const-vbv / sar=1 / overscan=0 / videoformat=5 / range=0 / colorprim=1 / transfer=1 / colormatrix=1 / chromaloc=1 / chromaloc-top=0 / chromaloc-bottom=0 / display-window=0 / cll=0,0 / min-luma=0 / max-luma=255 / log2-max-poc-lsb=8 / vui-timing-info / vui-hrd-info / slices=1 / no-opt-qp-pps / no-opt-ref-list-length-pps / no-multi-pass-opt-rps / scenecut-bias=0.05 / hist-threshold=0.03 / no-opt-cu-delta-qp / no-aq-motion / no-hdr10 / no-hdr10-opt / no-dhdr10-opt / no-idr-recovery-sei / analysis-reuse-level=0 / analysis-save-reuse-level=0 / analysis-load-reuse-level=0 / scale-factor=0 / refine-intra=0 / refine-inter=0 / refine-mv=1 / refine-ctu-distortion=0 / no-limit-sao / ctu-info=0 / no-lowpass-dct / refine-analysis-type=0 / copy-pic=1 / max-ausize-factor=1.0 / no-dynamic-refine / no-single-sei / no-hevc-aq / no-svt / no-field / qp-adaptation-range=1.00 / scenecut-aware-qp=0conformance-window-offsets / right=0 / bottom=0 / decoder-max-rate=0 / no-vbv-live-multi-pass
Default : Yes
Forced : No
Color range : Limited
Color primaries : BT.709
Transfer characteristics : BT.709
Matrix coefficients : BT.709

Audio
ID : 2
Format : E-AC-3
Format/Info : Enhanced AC-3
Commercial name : Dolby Digital Plus
Codec ID : A_EAC3
Duration : 1 h 22 min
Bit rate mode : Constant
Bit rate : 160 kb/s
Channel(s) : 2 channels
Channel layout : L R
Sampling rate : 48.0 kHz
Frame rate : 31.250 FPS (1536 SPF)
Compression mode : Lossy
Delay relative to video : -5 ms
Stream size : 93.9 MiB (9%)
Language : English
Service kind : Complete Main
Default : Yes
Forced : No

Text
ID : 3
Format : PGS
Codec ID : S_HDMV/PGS
Codec ID/Info : Picture based subtitle format used on BDs/HD-DVDs
Duration : 1 h 21 min
Language : English
Default : No
Forced : No

Menu
00:00:00.000 : Chapter 1
00:02:03.123 : Chapter 2
00:06:36.438 : Chapter 3
00:09:04.586 : Chapter 4
00:12:12.315 : Chapter 5
00:14:57.980 : Chapter 6
00:18:29.108 : Chapter 7
00:22:23.509 : Chapter 8
00:25:04.003 : Chapter 9
00:26:52.152 : Chapter 10
00:31:16.958 : Chapter 11
00:35:39.179 : Chapter 12
00:36:34.192 : Chapter 13
00:38:47.325 : Chapter 14
00:40:30.970 : Chapter 15
00:44:35.715 : Chapter 16
00:46:46.804 : Chapter 17
00:50:27.024 : Chapter 18
00:53:46.223 : Chapter 19
00:56:15.372 : Chapter 20
01:01:02.742 : Chapter 21
01:01:40.697 : Chapter 22
01:03:54.372 : Chapter 23
01:07:06.731 : Chapter 24
01:09:39.217 : Chapter 25
01:12:25.883 : Chapter 26
01:14:42.478 : Chapter 27
01:17:04.620 : Chapter 28
01:19:57.876 : Chapter 29
01:21:20.918 : Chapter 30

ReportBy : MediaInfoLib - v23.10

Files