Challengers (2024) (1080p BluRay x265 10bit EAC3 7 1 English - H4XO)

Tashi, a former tennis prodigy turned coach, turned her husband into a champion. But to overcome a losing streak, he needs to face his ex-best friend and Tashi's ex-boyfriend.

Year: 2024
Duration: 131 min
Release date: Wednesday 24th April 2024
Genre: Drama, Romance, Sport

Rating

7.7/10
(32971 Votes)

0

Your Rating

Stars:
Zendaya, Mike Faist, Josh O'Connor, Darnell Appling, Bryan Doo, Shane T Harris, Nada Despotovich, Joan Mcshane

@@@@@@@@@@@@@@@@@@@%@%@%@%%%%%%%%%%%%%%%%%%%%%%%%%%%%%%%%%%%%%%%%%%%%%%%%%%%%%%%%%%%%%%%%%
@@@@@@@@@%@@@@@%@@@%%%@%%%%%%%%%%%%%%%%%%%%%%%%%%%%%%%%%%%%%%%%%%%%%%%%%%%%%%%%%%%%%%%%%%%
@@@@@@@@@@@@@@@%@@@%%%%%@%%%%%%%%%%%%%%%%%%%%%%%%%%%%%%%%%%%%%%%%%%%%%%%%%%%%%%%%%%%%%%%%%
@@@@@@@@@@@%@%@%@%%%%%%%%%%%%%%%%%%%%%%%%%%%%%%%%%%%%%%%%%%%%%%%%%%%%%%%%%%%%%%%%%%%%%%%%%
@@@@@@@@@%@%%%%%%%%%%%%%%%%%%%%%%%%%%%%%%%%####%%%%##%#%#%#####%#%#%%%%%%%%%%%%%%%%%%%%%%%
@@@@@@@@@%%%%%%%%%%%%%%%%%%%%%%%%%%%%####################################%%%%%%%%%%%%%%%%%
@@@@@@@%%%%%%**++++#%###**+=++*%######*+========+#****+====+##*++====+*####%%%%%%%%%%%%%%%
@@@@@@@%%%%##+- *%***+=. =%###**+-. -#*=-. :+=:. :+*###%%%%%%%%%%%%%
@@%%@@@%%%%##+- +%***== =%****=- :. :=- -=: .---:. -%###%%%%%%%%%%%
@@@@@@@%%%%#*+- .+#+++==. .:-#*++=- ++-. :=: .+#*+*++-. :%##%%%%%%%%%@@
@@@@@%@%%%###+=. :..... .#*==:. :. .*+=-. .++-. =#++++++=- .*%##%%%%%%%%@%
@@@@@@@%%%###+=. ++:. ---. +*+=-. +*==:. -#+****++=. .-%%%%%%%%%%@@
%%@%@%%%%%###+=. :%*+++=- -. =+: . -*=: +#****+=: +%%%%%%%%%%%%
@@@@@%%%%%%#*+-. .+****+=. :+:::::::. :. .==. .=- -+=-::. :++%#%%%%%%%@@@@
@%@@@%%%%%%#*+. .%#***+=. =%+++++++=: =**==. ==. :+#####%%%%%%%@%@%
@@@@@@%%%%%%#*=---=#****++----+#*****+++-::::::-+#*+++=-::--*++=------=*#####%%%%%%@%%@@@@
%%%%@%%%%%%%####*++++++****++=====**++===+**+++***+++====+**++=========++####%%%%%%%%%@%@%
@%@%%%%%%%%%%%##*=: =#*=-. .=-. .=#****+=: .=#**+=. .+%%%%%%%%%%%%@@@@
%%%%%%%%%%%%%%%##*+-. :=- :=: .--. -%*++=. :*#+++=- :+-=====*##%%%%%%%%%%%%@@
@%%%@%%%%%%%%%%%##*+=-. . :*+=---+*=-. +*=-. -++**+==. .+====+####%%%%%@%@@@@@@@
%%%%%%%%%%%%%%%%###**=-. =#*++*++++=- =+- .+#=-. :*%##%%%%%%@@@@@@@
%%%%%%%%%%%%%%%%###**+=. .+#++**+++=: .=+: =+=: -#+=:.:==-. *%#%%%%%%@%%@@@@
%%%%%%%%%%%%%%%####*=-. =#*+++=-. -*+- +#+==. -*++*++++=- .*%#%%%%%%@%%@@@@
%%%%%%%%%%%%%%%###*=: -=. :*=-. -*+++==. -#+=: =- .-+*+=-. -%%#%%%%%%@%%@@@@
%%%%%%%%%%%%%%%#*+-. -+#+=. : .==. .++-. -%#%%%%%%@@@@@@@@@
%%%%%%%%%%%%%%%#+=::::=##**+=:::::::::::::::-*#+=-:::::=*#****+=-::::-=#%%%%%%%%%%@@@@@@@@
%%%%%%%%%%%%%%%%%################*#####################################%%%%%%%%%@@@@@@@@@@
%%%%%%%%%%%%%%%%%%%%##%#%##############################%%%#%%%%%%%%%%%%%%%%%%@%@%@%@@@@@@@
%%%%%%%%%%%%%%%%%%%%%%%%%%%%%%%%%%%%%%%%%%%%%%%%%%%%%%%%%%%%%%%%%%%%%%%%%%%%@@%@@@@@@@@@@@
%%%%%%%%%%%%%%%%%%%%%%%%%%%%%%%%%%%%%%%%%%%%%%%%%%%%%%%%%%%%%%%%%%%%%@%@%@%@%%@@%%@@%%%%@@
%%%%%%%%%%%%%%%%%%%%%%%%%%%%%%%%%%%%%%%%%%%%%%%%%%%%%%%%%%%%%@%@%@%@%@%@@@@@@@@@@@@@@@@@@@
%%%%%%%%%%%%%%%%%%%%%%%%%%%%%%%%%%%%%%%%%%%%%%%%%%%%%%%%%%%%%%%%%%%%%%%%%@%@%%@@@@@@@@@%@@
--- MOVIE ---Challengers (2024) (1080p BluRay x265 10bit EAC3 7.1 English - H4XO)--- SOURCE ---Challengers.2024.BluRay.1080p.TrueHD.Atmos.7.1.AVC.REMUX-FraMeSToR--- SCREENS ---

Mediainfo:
General
Unique ID : 116082373176002240929332304334108326793 (0x5754A6DFBDBEAEAAF9AE26F929BD7B89)
Complete name : Challengers (2024) (1080p BluRay x265 10bit EAC3 7.1 English - H4XO).mkv
Format : Matroska
Format version : Version 4
File size : 4.34 GiB
Duration : 2 h 11 min
Overall bit rate : 4 735 kb/s
Movie name : Challengers (2024) (1080p BluRay x265 10bit EAC3 7.1 English - H4XO)
Encoded date : UTC 2024-07-07 06:42:09
Writing application : mkvmerge v65.0.0 ('Too Much') 64-bit
Writing library : libebml v1.4.2 + libmatroska v1.6.3 / Lavf61.1.100

Video
ID : 1
Format : HEVC
Format/Info : High Efficiency Video Coding
Format profile : Main 10@L4@Main
Codec ID : V_MPEGH/ISO/HEVC
Duration : 2 h 11 min
Bit rate : 3 916 kb/s
Width : 1 920 pixels
Height : 1 024 pixels
Display aspect ratio : 1.85:1
Frame rate mode : Variable
Frame rate : 23.952 FPS
Original frame rate : 23.976 (24000/1001) FPS
Color space : YUV
Chroma subsampling : 4:2:0 (Type 0)
Bit depth : 10 bits
Bits/(Pixel*Frame) : 0.083
Stream size : 3.59 GiB (83%)
Writing library : x265 3.5+1-f0c1022b6:[Linux][GCC 8.3.0][64 bit] 10bit
Encoding settings : cpuid=1111039 / frame-threads=4 / numa-pools=20 / wpp / no-pmode / no-pme / no-psnr / no-ssim / log-level=2 / input-csp=1 / input-res=1920x1024 / interlace=0 / total-frames=0 / level-idc=0 / high-tier=1 / uhd-bd=0 / ref=3 / no-allow-non-conformance / no-repeat-headers / annexb / no-aud / no-hrd / info / hash=0 / no-temporal-layers / open-gop / min-keyint=23 / keyint=250 / gop-lookahead=0 / bframes=8 / b-adapt=2 / b-pyramid / bframe-bias=0 / rc-lookahead=80 / lookahead-slices=4 / scenecut=40 / hist-scenecut=0 / radl=0 / no-splice / no-intra-refresh / ctu=64 / min-cu-size=8 / no-rect / no-amp / max-tu-size=32 / tu-inter-depth=1 / tu-intra-depth=1 / limit-tu=0 / rdoq-level=2 / dynamic-rd=0.00 / no-ssim-rd / signhide / no-tskip / nr-intra=0 / nr-inter=0 / no-constrained-intra / no-strong-intra-smoothing / max-merge=3 / limit-refs=3 / no-limit-modes / me=3 / subme=5 / merange=57 / temporal-mvp / no-frame-dup / no-hme / weightp / no-weightb / no-analyze-src-pics / deblock=0:0 / sao / no-sao-non-deblock / rd=4 / selective-sao=4 / early-skip / rskip / no-fast-intra / no-tskip-fast / no-cu-lossless / b-intra / no-splitrd-skip / rdpenalty=0 / psy-rd=1.30 / psy-rdoq=2.00 / no-rd-refine / no-lossless / cbqpoffs=0 / crqpoffs=0 / rc=abr / bitrate=4000 / qcomp=0.60 / qpstep=4 / stats-write=0 / stats-read=0 / vbv-maxrate=5000 / vbv-bufsize=6000 / vbv-init=0.8 / min-vbv-fullness=50.0 / max-vbv-fullness=80.0 / ipratio=1.40 / pbratio=1.30 / aq-mode=4 / aq-strength=1.10 / cutree / zone-count=0 / no-strict-cbr / qg-size=32 / no-rc-grain / qpmax=69 / qpmin=0 / no-const-vbv / sar=1 / overscan=0 / videoformat=5 / range=0 / colorprim=1 / transfer=1 / colormatrix=1 / chromaloc=1 / chromaloc-top=0 / chromaloc-bottom=0 / display-window=0 / cll=0,0 / min-luma=0 / max-luma=1023 / log2-max-poc-lsb=8 / vui-timing-info / vui-hrd-info / slices=1 / no-opt-qp-pps / no-opt-ref-list-length-pps / no-multi-pass-opt-rps / scenecut-bias=0.00 / hist-threshold=0.03 / no-opt-cu-delta-qp / no-aq-motion / no-hdr10 / no-hdr10-opt / no-dhdr10-opt / no-idr-recovery-sei / analysis-reuse-level=0 / analysis-save-reuse-level=0 / analysis-load-reuse-level=0 / scale-factor=0 / refine-intra=0 / refine-inter=0 / refine-mv=1 / refine-ctu-distortion=0 / no-limit-sao / ctu-info=0 / no-lowpass-dct / refine-analysis-type=0 / copy-pic=1 / max-ausize-factor=1.0 / no-dynamic-refine / no-single-sei / no-hevc-aq / no-svt / no-field / qp-adaptation-range=1.00 / scenecut-aware-qp=0conformance-window-offsets / right=0 / bottom=0 / decoder-max-rate=0 / no-vbv-live-multi-pass
Default : No
Forced : No
Color range : Limited
Color primaries : BT.709
Transfer characteristics : BT.709
Matrix coefficients : BT.709

Audio
ID : 2
Format : E-AC-3
Format/Info : Enhanced AC-3
Commercial name : Dolby Digital Plus
Format settings : Dolby Surround EX
Codec ID : A_EAC3
Duration : 2 h 11 min
Bit rate mode : Constant
Bit rate : 768 kb/s
Channel(s) : 8 channels
Channel layout : L R C LFE Ls Rs Lb Rb
Sampling rate : 48.0 kHz
Frame rate : 31.250 FPS (1536 SPF)
Bit depth : 32 bits
Compression mode : Lossy
Delay relative to video : -3 ms
Stream size : 721 MiB (16%)
Title : DDP 7.1
Language : English
Service kind : Complete Main
Default : Yes
Forced : No

Text #1
ID : 3
Format : UTF-8
Codec ID : S_TEXT/UTF8
Codec ID/Info : UTF-8 Plain Text
Duration : 2 h 5 min
Bit rate : 48 b/s
Count of elements : 1520
Stream size : 44.7 KiB (0%)
Title : English
Language : English
Default : Yes
Forced : No

Text #2
ID : 4
Format : PGS
Muxing mode : zlib
Codec ID : S_HDMV/PGS
Codec ID/Info : Picture based subtitle format used on BDs/HD-DVDs
Duration : 2 h 7 min
Bit rate : 37.6 kb/s
Count of elements : 3897
Stream size : 34.1 MiB (1%)
Title : English (SDH)
Language : English
Default : No
Forced : No

Text #3
ID : 5
Format : UTF-8
Codec ID : S_TEXT/UTF8
Codec ID/Info : UTF-8 Plain Text
Duration : 2 h 10 min
Bit rate : 63 b/s
Count of elements : 1406
Stream size : 60.8 KiB (0%)
Title : Bulgarian
Language : Bulgarian
Default : No
Forced : No

Text #4
ID : 6
Format : UTF-8
Codec ID : S_TEXT/UTF8
Codec ID/Info : UTF-8 Plain Text
Duration : 2 h 10 min
Bit rate : 35 b/s
Count of elements : 1408
Stream size : 33.9 KiB (0%)
Title : Chinese (Cantonese)
Language : Chinese
Default : No
Forced : No

Text #5
ID : 7
Format : UTF-8
Codec ID : S_TEXT/UTF8
Codec ID/Info : UTF-8 Plain Text
Duration : 2 h 10 min
Bit rate : 35 b/s
Count of elements : 1407
Stream size : 34.3 KiB (0%)
Title : Chinese (Traditional)
Language : Chinese
Default : No
Forced : No

Text #6
ID : 8
Format : UTF-8
Codec ID : S_TEXT/UTF8
Codec ID/Info : UTF-8 Plain Text
Duration : 2 h 10 min
Bit rate : 40 b/s
Count of elements : 1385
Stream size : 39.0 KiB (0%)
Title : Czech
Language : Czech
Default : No
Forced : No

Text #7
ID : 9
Format : UTF-8
Codec ID : S_TEXT/UTF8
Codec ID/Info : UTF-8 Plain Text
Duration : 2 h 10 min
Bit rate : 37 b/s
Count of elements : 912
Stream size : 35.3 KiB (0%)
Title : Danish
Language : Danish
Default : No
Forced : No

Text #8
ID : 10
Format : PGS
Muxing mode : zlib
Codec ID : S_HDMV/PGS
Codec ID/Info : Picture based subtitle format used on BDs/HD-DVDs
Duration : 2 h 10 min
Bit rate : 20.0 kb/s
Count of elements : 1836
Stream size : 18.6 MiB (0%)
Title : Dutch
Language : Dutch
Default : No
Forced : No

Text #9
ID : 11
Format : UTF-8
Codec ID : S_TEXT/UTF8
Codec ID/Info : UTF-8 Plain Text
Duration : 2 h 10 min
Bit rate : 39 b/s
Count of elements : 1325
Stream size : 38.0 KiB (0%)
Title : Estonian
Language : Estonian
Default : No
Forced : No

Text #10
ID : 12
Format : UTF-8
Codec ID : S_TEXT/UTF8
Codec ID/Info : UTF-8 Plain Text
Duration : 2 h 10 min
Bit rate : 38 b/s
Count of elements : 1424
Stream size : 36.4 KiB (0%)
Title : Finnish
Language : Finnish
Default : No
Forced : No

Text #11
ID : 13
Format : UTF-8
Codec ID : S_TEXT/UTF8
Codec ID/Info : UTF-8 Plain Text
Duration : 2 h 10 min
Bit rate : 48 b/s
Count of elements : 1645
Stream size : 46.2 KiB (0%)
Title : French (Canadian)
Language : French
Default : No
Forced : No

Text #12
ID : 14
Format : PGS
Muxing mode : zlib
Codec ID : S_HDMV/PGS
Codec ID/Info : Picture based subtitle format used on BDs/HD-DVDs
Duration : 2 h 9 min
Bit rate : 19.9 kb/s
Count of elements : 2454
Stream size : 18.5 MiB (0%)
Title : French (Parisian)
Language : French
Default : No
Forced : No

Text #13
ID : 15
Format : UTF-8
Codec ID : S_TEXT/UTF8
Codec ID/Info : UTF-8 Plain Text
Duration : 2 h 10 min
Bit rate : 42 b/s
Count of elements : 1102
Stream size : 40.7 KiB (0%)
Title : German
Language : German
Default : No
Forced : No

Text #14
ID : 16
Format : UTF-8
Codec ID : S_TEXT/UTF8
Codec ID/Info : UTF-8 Plain Text
Duration : 2 h 10 min
Bit rate : 63 b/s
Count of elements : 1385
Stream size : 60.3 KiB (0%)
Title : Greek
Language : Greek
Default : No
Forced : No

Text #15
ID : 17
Format : UTF-8
Codec ID : S_TEXT/UTF8
Codec ID/Info : UTF-8 Plain Text
Duration : 2 h 10 min
Bit rate : 66 b/s
Count of elements : 1386
Stream size : 63.5 KiB (0%)
Title : Hebrew
Language : Hebrew
Default : No
Forced : No

Text #16
ID : 18
Format : UTF-8
Codec ID : S_TEXT/UTF8
Codec ID/Info : UTF-8 Plain Text
Duration : 2 h 10 min
Bit rate : 102 b/s
Count of elements : 1407
Stream size : 97.3 KiB (0%)
Title : Hindi
Language : Hindi
Default : No
Forced : No

Text #17
ID : 19
Format : UTF-8
Codec ID : S_TEXT/UTF8
Codec ID/Info : UTF-8 Plain Text
Duration : 2 h 10 min
Bit rate : 35 b/s
Count of elements : 972
Stream size : 33.6 KiB (0%)
Title : Hungarian
Language : Hungarian
Default : No
Forced : No

Text #18
ID : 20
Format : UTF-8
Codec ID : S_TEXT/UTF8
Codec ID/Info : UTF-8 Plain Text
Duration : 2 h 10 min
Bit rate : 40 b/s
Count of elements : 1366
Stream size : 38.5 KiB (0%)
Title : Indonesian
Language : Indonesian
Default : No
Forced : No

Text #19
ID : 21
Format : UTF-8
Codec ID : S_TEXT/UTF8
Codec ID/Info : UTF-8 Plain Text
Duration : 2 h 6 min
Bit rate : 39 b/s
Count of elements : 1066
Stream size : 36.7 KiB (0%)
Title : Italian
Language : Italian
Default : No
Forced : No

Text #20
ID : 22
Format : PGS
Muxing mode : zlib
Codec ID : S_HDMV/PGS
Codec ID/Info : Picture based subtitle format used on BDs/HD-DVDs
Duration : 2 h 6 min
Bit rate : 27.5 kb/s
Count of elements : 2490
Stream size : 25.0 MiB (1%)
Title : Italian (SDH)
Language : Italian
Default : No
Forced : No

Text #21
ID : 23
Format : UTF-8
Codec ID : S_TEXT/UTF8
Codec ID/Info : UTF-8 Plain Text
Duration : 2 h 10 min
Bit rate : 33 b/s
Count of elements : 1203
Stream size : 31.6 KiB (0%)
Title : Japanese
Language : Japanese
Default : No
Forced : No

Text #22
ID : 24
Format : UTF-8
Codec ID : S_TEXT/UTF8
Codec ID/Info : UTF-8 Plain Text
Duration : 2 h 10 min
Bit rate : 36 b/s
Count of elements : 1355
Stream size : 35.2 KiB (0%)
Title : Korean
Language : Korean
Default : No
Forced : No

Text #23
ID : 25
Format : UTF-8
Codec ID : S_TEXT/UTF8
Codec ID/Info : UTF-8 Plain Text
Duration : 2 h 10 min
Bit rate : 39 b/s
Count of elements : 1519
Stream size : 38.1 KiB (0%)
Title : Latvian
Language : Latvian
Default : No
Forced : No

Text #24
ID : 26
Format : UTF-8
Codec ID : S_TEXT/UTF8
Codec ID/Info : UTF-8 Plain Text
Duration : 2 h 10 min
Bit rate : 44 b/s
Count of elements : 1400
Stream size : 42.1 KiB (0%)
Title : Lithuanian
Language : Lithuanian
Default : No
Forced : No

Text #25
ID : 27
Format : UTF-8
Codec ID : S_TEXT/UTF8
Codec ID/Info : UTF-8 Plain Text
Duration : 2 h 10 min
Bit rate : 43 b/s
Count of elements : 1493
Stream size : 41.4 KiB (0%)
Title : Malay
Language : Malay
Default : No
Forced : No

Text #26
ID : 28
Format : UTF-8
Codec ID : S_TEXT/UTF8
Codec ID/Info : UTF-8 Plain Text
Duration : 2 h 10 min
Bit rate : 37 b/s
Count of elements : 988
Stream size : 36.1 KiB (0%)
Title : Norwegian
Language : Norwegian Bokmal
Default : No
Forced : No

Text #27
ID : 29
Format : UTF-8
Codec ID : S_TEXT/UTF8
Codec ID/Info : UTF-8 Plain Text
Duration : 2 h 10 min
Bit rate : 38 b/s
Count of elements : 1378
Stream size : 36.3 KiB (0%)
Title : Polish
Language : Polish
Default : No
Forced : No

Text #28
ID : 30
Format : UTF-8
Codec ID : S_TEXT/UTF8
Codec ID/Info : UTF-8 Plain Text
Duration : 2 h 10 min
Bit rate : 39 b/s
Count of elements : 1366
Stream size : 37.8 KiB (0%)
Title : Portuguese (Brazilian)
Language : Portuguese
Default : No
Forced : No

Text #29
ID : 31
Format : UTF-8
Codec ID : S_TEXT/UTF8
Codec ID/Info : UTF-8 Plain Text
Duration : 2 h 10 min
Bit rate : 43 b/s
Count of elements : 1358
Stream size : 41.4 KiB (0%)
Title : Portuguese (Iberian)
Language : Portuguese
Default : No
Forced : No

Text #30
ID : 32
Format : UTF-8
Codec ID : S_TEXT/UTF8
Codec ID/Info : UTF-8 Plain Text
Duration : 2 h 10 min
Bit rate : 32 b/s
Count of elements : 1039
Stream size : 31.3 KiB (0%)
Title : Slovak
Language : Slovak
Default : No
Forced : No

Text #31
ID : 33
Format : UTF-8
Codec ID : S_TEXT/UTF8
Codec ID/Info : UTF-8 Plain Text
Duration : 2 h 10 min
Bit rate : 37 b/s
Count of elements : 1031
Stream size : 36.1 KiB (0%)
Title : Slovenian
Language : Slovenian
Default : No
Forced : No

Text #32
ID : 34
Format : PGS
Muxing mode : zlib
Codec ID : S_HDMV/PGS
Codec ID/Info : Picture based subtitle format used on BDs/HD-DVDs
Duration : 2 h 10 min
Bit rate : 23.6 kb/s
Count of elements : 2668
Stream size : 22.0 MiB (0%)
Title : Spanish (Castilian)
Language : Spanish
Default : No
Forced : No

Text #33
ID : 35
Format : PGS
Muxing mode : zlib
Codec ID : S_HDMV/PGS
Codec ID/Info : Picture based subtitle format used on BDs/HD-DVDs
Duration : 2 h 10 min
Bit rate : 25.3 kb/s
Count of elements : 2770
Stream size : 23.5 MiB (1%)
Title : Spanish (Latin American)
Language : Spanish
Default : No
Forced : No

Text #34
ID : 36
Format : UTF-8
Codec ID : S_TEXT/UTF8
Codec ID/Info : UTF-8 Plain Text
Duration : 2 h 10 min
Bit rate : 35 b/s
Count of elements : 1172
Stream size : 33.5 KiB (0%)
Title : Swedish
Language : Swedish
Default : No
Forced : No

Text #35
ID : 37
Format : UTF-8
Codec ID : S_TEXT/UTF8
Codec ID/Info : UTF-8 Plain Text
Duration : 2 h 10 min
Bit rate : 119 b/s
Count of elements : 1407
Stream size : 114 KiB (0%)
Title : Tamil
Language : Tamil
Default : No
Forced : No

Text #36
ID : 38
Format : UTF-8
Codec ID : S_TEXT/UTF8
Codec ID/Info : UTF-8 Plain Text
Duration : 2 h 10 min
Bit rate : 104 b/s
Count of elements : 1407
Stream size : 99.4 KiB (0%)
Title : Telugu
Language : Telugu
Default : No
Forced : No

Text #37
ID : 39
Format : UTF-8
Codec ID : S_TEXT/UTF8
Codec ID/Info : UTF-8 Plain Text
Duration : 2 h 10 min
Bit rate : 98 b/s
Count of elements : 1391
Stream size : 93.7 KiB (0%)
Title : Thai
Language : Thai
Default : No
Forced : No

Text #38
ID : 40
Format : UTF-8
Codec ID : S_TEXT/UTF8
Codec ID/Info : UTF-8 Plain Text
Duration : 2 h 10 min
Bit rate : 43 b/s
Count of elements : 1361
Stream size : 41.3 KiB (0%)
Title : Turkish
Language : Turkish
Default : No
Forced : No

Text #39
ID : 41
Format : UTF-8
Codec ID : S_TEXT/UTF8
Codec ID/Info : UTF-8 Plain Text
Duration : 2 h 10 min
Bit rate : 73 b/s
Count of elements : 1592
Stream size : 70.0 KiB (0%)
Title : Ukrainian
Language : Ukrainian
Default : No
Forced : No

Text #40
ID : 42
Format : UTF-8
Codec ID : S_TEXT/UTF8
Codec ID/Info : UTF-8 Plain Text
Duration : 2 h 10 min
Bit rate : 49 b/s
Count of elements : 1382
Stream size : 47.5 KiB (0%)
Title : Vietnamese
Language : Vietnamese
Default : No
Forced : No

Menu
00:00:00.000 : :Chapter 1
00:09:52.133 : :Chapter 2
00:19:48.896 : :Chapter 3
00:30:44.676 : :Chapter 4
00:44:38.718 : :Chapter 5
00:52:31.774 : :Chapter 6
01:02:08.850 : :Chapter 7
01:11:06.137 : :Chapter 8
01:20:42.421 : :Chapter 9
01:30:23.168 : :Chapter 10
01:44:21.672 : :Chapter 11
01:53:18.959 : :Chapter 12
02:07:04.700 : :Chapter 13

Files