American Underdog (2021) (1080p BDRip x265 10bit TrueHD 7 1 Atmos English - JBENT)[TAoE]

The story of NFL MVP and Hall of Fame quarterback Kurt Warner, who went from stocking shelves at a supermarket to becoming an American Football star.

Year: 2021
Duration: 112 min
Release date: Saturday 25th December 2021
Genre: Biography, Drama, Sport

Rating

7.1/10
(19946 Votes)

0

Your Rating

Stars:
Zachary Levi, Anna Paquin, Hayden Zaller, Ser'Darius Blain, Dennis Quaid, Chance Kelly, Simeon Castille, Bruce McGill

American Underdog (2021)

Quantization Parameter

Avg QP : 22.58
frame I: 1561, Avg QP:17.39 kb/s: 17808.04
frame P: 30798, Avg QP:18.91 kb/s: 11337.13
frame B: 128970, Avg QP:23.52 kb/s: 2269.78

Encode Media Information

General
Unique ID : 177436517752762780295996867902012842330 (0x857D07C038267C741308C5617132E15A)
Complete name : American Underdog (2021) (1080p BDRip x265 10bit TrueHD 7.1 Atmos English - JBENT)[TAoE].mkv
Format : Matroska
Format version : Version 4
File size : 5.75 GiB
Duration : 1 h 52 min
Overall bit rate mode : Variable
Overall bit rate : 7 336 kb/s
Encoded date : UTC 2024-07-07 22:16:13
Writing application : mkvmerge v84.0 ('Sleeper') 64-bit
Writing library : libebml v1.4.5 + libmatroska v1.7.1

Video
ID : 1
Format : HEVC
Format/Info : High Efficiency Video Coding
Format profile : Main 10@L4@Main
Codec ID : V_MPEGH/ISO/HEVC
Duration : 1 h 52 min
Bit rate : 4 152 kb/s
Width : 1 920 pixels
Height : 804 pixels
Display aspect ratio : 2.40:1
Frame rate mode : Constant
Frame rate : 23.976 (24000/1001) FPS
Color space : YUV
Chroma subsampling : 4:2:0
Bit depth : 10 bits
Bits/(Pixel*Frame) : 0.112
Stream size : 3.25 GiB (57%)
Writing library : x265 3.6+13+1-726aec126:[Windows][MSVC 1939][64 bit] 10bit
Encoding settings : cpuid=1111039 / frame-threads=4 / numa-pools=24 / wpp / no-pmode / no-pme / no-psnr / no-ssim / log-level=2 / input-csp=1 / input-res=1920x804 / interlace=0 / total-frames=161329 / level-idc=0 / high-tier=1 / uhd-bd=0 / ref=4 / no-allow-non-conformance / no-repeat-headers / annexb / no-aud / no-eob / no-eos / no-hrd / info / hash=0 / temporal-layers=0 / open-gop / min-keyint=23 / keyint=250 / gop-lookahead=0 / bframes=8 / b-adapt=2 / b-pyramid / bframe-bias=0 / rc-lookahead=80 / lookahead-slices=4 / scenecut=40 / no-hist-scenecut / radl=0 / no-splice / no-intra-refresh / ctu=64 / min-cu-size=8 / no-rect / no-amp / max-tu-size=32 / tu-inter-depth=1 / tu-intra-depth=1 / limit-tu=0 / rdoq-level=2 / dynamic-rd=0.00 / no-ssim-rd / signhide / no-tskip / nr-intra=0 / nr-inter=0 / no-constrained-intra / no-strong-intra-smoothing / max-merge=3 / limit-refs=3 / limit-modes / me=3 / subme=5 / merange=57 / temporal-mvp / no-frame-dup / no-hme / weightp / no-weightb / no-analyze-src-pics / deblock=0:0 / sao / no-sao-non-deblock / rd=4 / selective-sao=4 / no-early-skip / rskip / no-fast-intra / no-tskip-fast / no-cu-lossless / no-b-intra / no-splitrd-skip / rdpenalty=0 / psy-rd=1.30 / psy-rdoq=2.00 / no-rd-refine / no-lossless / cbqpoffs=0 / crqpoffs=0 / rc=crf / crf=18.0 / qcomp=0.60 / qpstep=4 / stats-write=0 / stats-read=0 / ipratio=1.40 / pbratio=1.30 / aq-mode=4 / aq-strength=1.10 / aq-bias-strength=1.00 / cutree / zone-count=0 / no-strict-cbr / qg-size=32 / no-rc-grain / qpmax=69 / qpmin=0 / no-const-vbv / sar=0 / overscan=0 / videoformat=5 / range=0 / colorprim=2 / transfer=2 / colormatrix=2 / chromaloc=0 / display-window=0 / cll=0,0 / min-luma=0 / max-luma=1023 / log2-max-poc-lsb=8 / vui-timing-info / vui-hrd-info / slices=1 / no-opt-qp-pps / no-opt-ref-list-length-pps / no-multi-pass-opt-rps / scenecut-bias=0.05 / no-opt-cu-delta-qp / no-aq-motion / no-hdr10 / no-hdr10-opt / no-dhdr10-opt / no-idr-recovery-sei / analysis-reuse-level=0 / analysis-save-reuse-level=0 / analysis-load-reuse-level=0 / scale-factor=0 / refine-intra=0 / refine-inter=0 / refine-mv=1 / refine-ctu-distortion=0 / no-limit-sao / ctu-info=0 / no-lowpass-dct / refine-analysis-type=0 / copy-pic=1 / max-ausize-factor=1.0 / no-dynamic-refine / no-single-sei / no-hevc-aq / no-svt / no-field / qp-adaptation-range=1.00 / scenecut-aware-qp=0 / conformance-window-offsets / right=0 / bottom=0 / decoder-max-rate=0 / no-vbv-live-multi-pass / no-mcstf / no-sbrc
Default : Yes
Forced : No

Audio
ID : 2
Format : MLP FBA 16-ch
Format/Info : Meridian Lossless Packing FBA with 16-channel presentation
Commercial name : Dolby TrueHD with Dolby Atmos
Codec ID : A_TRUEHD
Duration : 1 h 52 min
Bit rate mode : Variable
Bit rate : 3 046 kb/s
Maximum bit rate : 5 094 kb/s
Channel(s) : 8 channels
Channel layout : L R C LFE Ls Rs Lb Rb
Sampling rate : 48.0 kHz
Frame rate : 1 200.000 FPS (40 SPF)
Compression mode : Lossless
Stream size : 2.39 GiB (42%)
Language : English
Default : No
Forced : No
Number of dynamic objects : 15
Bed channel count : 1 channel
Bed channel configuration : LFE

Text #1
ID : 3
Format : PGS
Muxing mode : zlib
Codec ID : S_HDMV/PGS
Codec ID/Info : Picture based subtitle format used on BDs/HD-DVDs
Duration : 1 h 51 min
Bit rate : 48.0 kb/s
Count of elements : 3594
Stream size : 38.3 MiB (1%)
Language : English
Default : No
Forced : No

Text #2
ID : 4
Format : PGS
Muxing mode : zlib
Codec ID : S_HDMV/PGS
Codec ID/Info : Picture based subtitle format used on BDs/HD-DVDs
Duration : 1 h 51 min
Bit rate : 41.6 kb/s
Count of elements : 3194
Stream size : 33.3 MiB (1%)
Language : Spanish
Default : No
Forced : No

Text #3
ID : 5
Format : PGS
Muxing mode : zlib
Codec ID : S_HDMV/PGS
Codec ID/Info : Picture based subtitle format used on BDs/HD-DVDs
Duration : 1 h 51 min
Bit rate : 39.0 kb/s
Count of elements : 3074
Stream size : 31.2 MiB (1%)
Language : French
Default : No
Forced : No

Menu
00:00:00.000 : en:Chapter 01
00:06:33.434 : en:Chapter 02
00:12:32.126 : en:Chapter 03
00:19:57.237 : en:Chapter 04
00:26:11.820 : en:Chapter 05
00:32:20.146 : en:Chapter 06
00:37:40.967 : en:Chapter 07
00:44:53.524 : en:Chapter 08
00:49:00.228 : en:Chapter 09
00:53:06.808 : en:Chapter 10
00:58:52.362 : en:Chapter 11
01:04:59.854 : en:Chapter 12
01:10:07.453 : en:Chapter 13
01:15:53.215 : en:Chapter 14
01:23:37.637 : en:Chapter 15
01:31:41.537 : en:Chapter 16

Source Media Information

General
Unique ID : 137195273302736317019345852316845657554 (0x6736D937D5917892732D163872E0CDD2)
Complete name : American.Underdog.2021.1080p.BluRay.REMUX.AVC.Atmos-PiRaTeS.mkv
Format : Matroska
Format version : Version 2
File size : 25.6 GiB
Duration : 1 h 52 min
Overall bit rate mode : Variable
Overall bit rate : 32.6 Mb/s
Encoded date : UTC 2022-02-15 08:29:34
Writing application : MakeMKV v1.16.5 linux(x64-release)
Writing library : libmakemkv v1.16.5 (1.3.10/1.5.2) x86_64-linux-gnu

Video
ID : 1
ID in the original source medium : 4113 (0x1011)
Format : AVC
Format/Info : Advanced Video Codec: Format profile : High@L4.1
Format settings : CABAC / 4 Ref Frames
Format settings, CABAC : Yes
Format settings, Reference frames : 4 frames
Codec ID : V_MPEG4/ISO/AVC
Duration : 1 h 52 min
Bit rate mode : Variable
Bit rate : 29.5 Mb/s
Maximum bit rate : 37.0 Mb/s
Width : 1 920 pixels
Height : 1 080 pixels
Display aspect ratio : 16:9
Frame rate mode : Constant
Frame rate : 23.976 (24000/1001) FPS
Color space : YUV
Chroma subsampling : 4:2:0
Bit depth : 8 bits
Scan type : Progressive
Bits/(Pixel*Frame) : 0.592
Stream size : 23.1 GiB (90%)
Language : English
Default : No
Forced : No
Original source medium : Blu-ray

Audio
ID : 2
ID in the original source medium : 4352 (0x1100)
Format : MLP FBA 16-ch
Format/Info : Meridian Lossless Packing FBA with 16-channel presentation
Commercial name : Dolby TrueHD with Dolby Atmos
Codec ID : A_TRUEHD
Duration : 1 h 52 min
Bit rate mode : Variable
Bit rate : 3 046 kb/s
Maximum bit rate : 5 094 kb/s
Channel(s) : 8 channels
Channel layout : L R C LFE Ls Rs Lb Rb
Sampling rate : 48.0 kHz
Frame rate : 1 200.000 FPS (40 SPF)
Bit depth : 24 bits
Compression mode : Lossless
Stream size : 2.39 GiB (9%)
Language : English
Default : Yes
Forced : No
Original source medium : Blu-ray
Number of dynamic objects : 15
Bed channel count : 1 channel
Bed channel configuration : LFE

Text #1
ID : 3
ID in the original source medium : 4608 (0x1200)
Format : PGS
Codec ID : S_HDMV/PGS
Codec ID/Info : Picture based subtitle format used on BDs/HD-DVDs
Duration : 1 h 51 min
Bit rate : 48.0 kb/s
Count of elements : 3594
Stream size : 38.3 MiB (0%)
Language : English
Default : No
Forced : No
Original source medium : Blu-ray

Text #2
ID : 5
ID in the original source medium : 4609 (0x1201)
Format : PGS
Codec ID : S_HDMV/PGS
Codec ID/Info : Picture based subtitle format used on BDs/HD-DVDs
Duration : 1 h 51 min
Bit rate : 41.6 kb/s
Count of elements : 3194
Stream size : 33.3 MiB (0%)
Language : Spanish
Default : No
Forced : No
Original source medium : Blu-ray

Text #3
ID : 6
ID in the original source medium : 4610 (0x1202)
Format : PGS
Codec ID : S_HDMV/PGS
Codec ID/Info : Picture based subtitle format used on BDs/HD-DVDs
Duration : 1 h 51 min
Bit rate : 39.0 kb/s
Count of elements : 3074
Stream size : 31.2 MiB (0%)
Language : French
Default : No
Forced : No
Original source medium : Blu-ray

Menu
00:00:00.000 : en:Chapter 01
00:06:33.434 : en:Chapter 02
00:12:32.126 : en:Chapter 03
00:19:57.237 : en:Chapter 04
00:26:11.820 : en:Chapter 05
00:32:20.146 : en:Chapter 06
00:37:40.967 : en:Chapter 07
00:44:53.524 : en:Chapter 08
00:49:00.228 : en:Chapter 09
00:53:06.808 : en:Chapter 10
00:58:52.362 : en:Chapter 11
01:04:59.854 : en:Chapter 12
01:10:07.453 : en:Chapter 13
01:15:53.215 : en:Chapter 14
01:23:37.637 : en:Chapter 15
01:31:41.537 : en:Chapter 16

Files