Destroyer 2018 1080p BluRay x265 DDP 5 1-NOXXUS

A police detective reconnects with people from an undercover assignment in her distant past in order to make peace.

Year: 2018
Duration: 121 min
Release date: Wednesday 20th February 2019
Genre: Action, Crime, Drama, Mystery, Thriller

Rating

6.2/10
(19922 Votes)

0

Your Rating

Stars:
Nicole Kidman, Toby Kebbell, Tatiana Maslany, Sebastian Stan, Scoot McNairy, Bradley Whitford, Toby Huss, James Jordan

General
Unique ID : 14366173165469530898872926371121071012 (0xACED305E2CFF48698BFA0D3AAC603A4)
Complete name : Destroyer.2018.1080p.BluRay.x265.DDP.5.1-NOXXUS.mkv
Format : Matroska
Format version : Version 4
File size : 11.6 GiB
Duration : 2 h 0 min
Overall bit rate : 13.8 Mb/s
Frame rate : 23.976 FPS
Encoded date : 2024-07-07 22:38:10 UTC
Writing application : mkvmerge v82.0 ('I'm The President') 64-bit
Writing library : libebml v1.4.5 + libmatroska v1.7.1
Encode source : Destroyer.2018.1080p.BluRay.Remux.AVC.DTS-HD.MA.5.1-PmP.mkv

Video
ID : 1
Format : HEVC
Format/Info : High Efficiency Video Coding
Format profile : Main 10@L4@Main
Codec ID : V_MPEGH/ISO/HEVC
Duration : 2 h 0 min
Bit rate : 12.2 Mb/s
Width : 1 920 pixels
Height : 1 080 pixels
Display aspect ratio : 16:9
Frame rate mode : Constant
Frame rate : 23.976 (24000/1001) FPS
Color space : YUV
Chroma subsampling : 4:2:0 (Type 0)
Bit depth : 10 bits
Bits/(Pixel*Frame) : 0.245
Stream size : 10.3 GiB (89%)
Title : MPEG-4 AVC Video / 35010 kbps / 1080p / 23.976 fps / 16:9 / High Profile 4.1
Writing library : x265 3.5+1-f0c1022b6:[Linux][GCC 11.2.0][64 bit] 10bit
Encoding settings : cpuid=1111039 / frame-threads=4 / wpp / no-pmode / no-pme / no-psnr / no-ssim / log-level=2 / input-csp=1 / input-res=1920x1080 / interlace=0 / total-frames=0 / level-idc=0 / high-tier=1 / uhd-bd=0 / ref=4 / no-allow-non-conformance / no-repeat-headers / annexb / no-aud / no-hrd / info / hash=0 / no-temporal-layers / open-gop / min-keyint=23 / keyint=250 / gop-lookahead=0 / bframes=8 / b-adapt=2 / b-pyramid / bframe-bias=0 / rc-lookahead=25 / lookahead-slices=4 / scenecut=40 / hist-scenecut=0 / radl=0 / no-splice / no-intra-refresh / ctu=64 / min-cu-size=8 / rect / no-amp / max-tu-size=32 / tu-inter-depth=1 / tu-intra-depth=1 / limit-tu=0 / rdoq-level=2 / dynamic-rd=0.00 / no-ssim-rd / signhide / no-tskip / nr-intra=0 / nr-inter=0 / no-constrained-intra / strong-intra-smoothing / max-merge=3 / limit-refs=3 / limit-modes / me=3 / subme=3 / merange=57 / temporal-mvp / no-frame-dup / no-hme / weightp / no-weightb / no-analyze-src-pics / deblock=0:0 / sao / no-sao-non-deblock / rd=4 / selective-sao=4 / no-early-skip / rskip / no-fast-intra / no-tskip-fast / no-cu-lossless / no-b-intra / no-splitrd-skip / rdpenalty=0 / psy-rd=2.00 / psy-rdoq=1.00 / no-rd-refine / no-lossless / cbqpoffs=0 / crqpoffs=0 / rc=crf / crf=18.0 / qcomp=0.60 / qpstep=4 / stats-write=0 / stats-read=0 / ipratio=1.40 / pbratio=1.30 / aq-mode=2 / aq-strength=1.00 / cutree / zone-count=0 / no-strict-cbr / qg-size=32 / no-rc-grain / qpmax=69 / qpmin=0 / no-const-vbv / sar=1 / overscan=0 / videoformat=5 / range=0 / colorprim=2 / transfer=2 / colormatrix=2 / chromaloc=1 / chromaloc-top=0 / chromaloc-bottom=0 / display-window=0 / cll=0,0 / min-luma=0 / max-luma=1023 / log2-max-poc-lsb=8 / vui-timing-info / vui-hrd-info / slices=1 / no-opt-qp-pps / no-opt-ref-list-length-pps / no-multi-pass-opt-rps / scenecut-bias=0.05 / hist-threshold=0.03 / no-opt-cu-delta-qp / no-aq-motion / no-hdr10 / no-hdr10-opt / no-dhdr10-opt / no-idr-recovery-sei / analysis-reuse-level=0 / analysis-save-reuse-level=0 / analysis-load-reuse-level=0 / scale-factor=0 / refine-intra=0 / refine-inter=0 / refine-mv=1 / refine-ctu-distortion=0 / no-limit-sao / ctu-info=0 / no-lowpass-dct / refine-analysis-type=0 / copy-pic=1 / max-ausize-factor=1.0 / no-dynamic-refine / no-single-sei / no-hevc-aq / no-svt / no-field / qp-adaptation-range=1.00 / scenecut-aware-qp=0conformance-window-offsets / right=0 / bottom=0 / decoder-max-rate=0 / no-vbv-live-multi-pass
Language : English
Default : Yes
Forced : No
Color range : Limited

Audio #1
ID : 2
Format : E-AC-3
Format/Info : Enhanced AC-3
Commercial name : Dolby Digital Plus
Codec ID : A_EAC3
Duration : 2 h 0 min
Bit rate mode : Constant
Bit rate : 1 024 kb/s
Channel(s) : 6 channels
Channel layout : L R C LFE Ls Rs
Sampling rate : 48.0 kHz
Frame rate : 31.250 FPS (1536 SPF)
Compression mode : Lossy
Stream size : 886 MiB (7%)
Service kind : Complete Main
Default : Yes
Forced : No

Audio #2
ID : 3
Format : AC-3
Format/Info : Audio Coding 3
Commercial name : Dolby Digital
Codec ID : A_AC3
Duration : 2 h 0 min
Bit rate mode : Constant
Bit rate : 224 kb/s
Channel(s) : 2 channels
Channel layout : L R
Sampling rate : 48.0 kHz
Frame rate : 31.250 FPS (1536 SPF)
Bit depth : 32 bits
Compression mode : Lossy
Stream size : 194 MiB (2%)
Title : Commentary by director Karyn Kusama
Language : English
Service kind : Complete Main
Default : No
Forced : No

Audio #3
ID : 4
Format : AC-3
Format/Info : Audio Coding 3
Commercial name : Dolby Digital
Codec ID : A_AC3
Duration : 2 h 0 min
Bit rate mode : Constant
Bit rate : 224 kb/s
Channel(s) : 2 channels
Channel layout : L R
Sampling rate : 48.0 kHz
Frame rate : 31.250 FPS (1536 SPF)
Bit depth : 32 bits
Compression mode : Lossy
Stream size : 194 MiB (2%)
Title : Commentary by co-writers Phil Hay and Matt Manfredi
Language : English
Service kind : Complete Main
Default : No
Forced : No

Text #1
ID : 5
Format : PGS
Muxing mode : zlib
Codec ID : S_HDMV/PGS
Codec ID/Info : Picture based subtitle format used on BDs/HD-DVDs
Duration : 1 h 59 min
Bit rate : 27.3 kb/s
Frame rate : 0.395 FPS
Count of elements : 2832
Stream size : 23.3 MiB (0%)
Title : SDH
Language : English
Default : Yes
Forced : No

Text #2
ID : 6
Format : PGS
Muxing mode : zlib
Codec ID : S_HDMV/PGS
Codec ID/Info : Picture based subtitle format used on BDs/HD-DVDs
Duration : 2 h 0 min
Bit rate : 56.5 kb/s
Frame rate : 0.532 FPS
Count of elements : 3849
Stream size : 48.7 MiB (0%)
Title : Commentary by director Karyn Kusama
Language : English
Default : No
Forced : No

Text #3
ID : 7
Format : PGS
Muxing mode : zlib
Codec ID : S_HDMV/PGS
Codec ID/Info : Picture based subtitle format used on BDs/HD-DVDs
Duration : 2 h 0 min
Bit rate : 63.0 kb/s
Frame rate : 0.565 FPS
Count of elements : 4088
Stream size : 54.3 MiB (0%)
Title : Commentary by co-writers Phil Hay and Matt Manfredi
Language : English
Default : No
Forced : No

Text #4
ID : 8
Format : PGS
Muxing mode : zlib
Codec ID : S_HDMV/PGS
Codec ID/Info : Picture based subtitle format used on BDs/HD-DVDs
Duration : 1 h 59 min
Bit rate : 22.3 kb/s
Frame rate : 0.331 FPS
Count of elements : 2370
Stream size : 19.1 MiB (0%)
Title : Latin American
Language : Spanish
Default : No
Forced : No

Text #5
ID : 9
Format : PGS
Muxing mode : zlib
Codec ID : S_HDMV/PGS
Codec ID/Info : Picture based subtitle format used on BDs/HD-DVDs
Duration : 2 h 0 min
Bit rate : 54.3 kb/s
Frame rate : 0.522 FPS
Count of elements : 3771
Stream size : 46.8 MiB (0%)
Title : Commentary by director Karyn Kusama
Language : Spanish
Default : No
Forced : No

Text #6
ID : 10
Format : PGS
Muxing mode : zlib
Codec ID : S_HDMV/PGS
Codec ID/Info : Picture based subtitle format used on BDs/HD-DVDs
Duration : 2 h 0 min
Bit rate : 57.3 kb/s
Frame rate : 0.548 FPS
Count of elements : 3964
Stream size : 49.4 MiB (0%)
Title : Commentary by co-writers Phil Hay and Matt Manfredi
Language : Spanish
Default : No
Forced : No

Menu
00:00:00.000 : Chapter 1
00:03:03.975 : Chapter 2
00:07:04.382 : Chapter 3
00:13:54.375 : Chapter 4
00:16:46.630 : Chapter 5
00:22:16.960 : Chapter 6
00:27:02.829 : Chapter 7
00:30:16.606 : Chapter 8
00:34:01.164 : Chapter 9
00:40:25.631 : Chapter 10
00:50:06.253 : Chapter 11
00:53:03.555 : Chapter 12
00:56:58.915 : Chapter 13
01:05:17.914 : Chapter 14
01:08:13.714 : Chapter 15
01:11:42.923 : Chapter 16
01:15:24.978 : Chapter 17
01:19:43.069 : Chapter 18
01:24:10.295 : Chapter 19
01:27:42.298 : Chapter 20
01:35:08.244 : Chapter 21
01:43:31.705 : Chapter 22
01:45:46.506 : Chapter 23
01:54:03.419 : Chapter 24

ReportBy : MediaInfoLib - v24.01

Files