The Expendables 2 2012 UHD BluRay 1080p DDP Atmos 5 1 DoVi HDR x265-SM737

Mr. Church reunites the Expendables for what should be an easy paycheck, but when one of their men is murdered on the job, their quest for revenge puts them deep in enemy territory and up against an unexpected threat.

Year: 2012
Duration: 102 min
Release date: Friday 17th August 2012
Genre: Action, Adventure

Rating

8/10
(8686 Votes)

0

Your Rating

Stars:
Sylvester Stallone, Liam Hemsworth, Randy Couture, Jean-Claude Van Damme

https://www.imdb.com/title/tt1764651/

General
Unique ID : 35530864879636803777894917638950901018 (0x1ABAFEE3B73CD44B84079DC2D74A551A)
Complete name : The.Expendables.2.2012.UHD.BluRay.1080p.DDP.Atmos.5.1.DoVi.HDR.x265-SM737.mkv
Format : Matroska
Format version : Version 4
File size : 4.41 GiB
Duration : 1 h 42 min
Overall bit rate : 6 149 kb/s
Frame rate : 23.976 FPS
Encoded date : 2024-06-17 06:59:02 UTC
Writing application : mkvmerge v82.0 ('I'm The President') 64-bit
Writing library : libebml v1.4.5 + libmatroska v1.7.1 / Lavf61.1.100

Video
ID : 1
Format : HEVC
Format/Info : High Efficiency Video Coding
Format profile : Main 10@L5.2@High
HDR format : Dolby Vision, Version 1.0, dvhe.08.10, BL+RPU, HDR10 compatible / SMPTE ST 2086, HDR10 compatible / SMPTE ST 2086, HDR10 compatible
Codec ID : V_MPEGH/ISO/HEVC
Duration : 1 h 42 min
Bit rate : 5 032 kb/s
Width : 1 920 pixels
Height : 800 pixels
Display aspect ratio : 2.40:1
Frame rate mode : Constant
Frame rate : 23.976 (24000/1001) FPS
Color space : YUV
Chroma subsampling : 4:2:0 (Type 2)
Bit depth : 10 bits
Bits/(Pixel*Frame) : 0.137
Stream size : 3.61 GiB (82%)
Writing library : x265 3.6+1-aa7f602f7:[Windows][GCC 13.2.0][64 bit] 10bit
Encoding settings : cpuid=1111039 / frame-threads=4 / numa-pools=16 / wpp / no-pmode / no-pme / no-psnr / no-ssim / log-level=2 / input-csp=1 / input-res=1920x800 / interlace=0 / total-frames=0 / level-idc=52 / high-tier=1 / uhd-bd=0 / ref=6 / no-allow-non-conformance / repeat-headers / annexb / aud / no-eob / no-eos / hrd / info / hash=0 / temporal-layers=0 / open-gop / min-keyint=24 / keyint=240 / gop-lookahead=0 / bframes=8 / b-adapt=2 / b-pyramid / bframe-bias=0 / rc-lookahead=40 / lookahead-slices=4 / scenecut=40 / no-hist-scenecut / radl=0 / no-splice / no-intra-refresh / ctu=64 / min-cu-size=8 / rect / no-amp / max-tu-size=32 / tu-inter-depth=1 / tu-intra-depth=1 / limit-tu=0 / rdoq-level=2 / dynamic-rd=0.00 / no-ssim-rd / signhide / no-tskip / nr-intra=0 / nr-inter=0 / no-constrained-intra / strong-intra-smoothing / max-merge=3 / limit-refs=3 / limit-modes / me=3 / subme=3 / merange=57 / temporal-mvp / no-frame-dup / no-hme / no-weightp / no-weightb / no-analyze-src-pics / deblock=-3:-3 / no-sao / no-sao-non-deblock / rd=4 / selective-sao=0 / no-early-skip / rskip / no-fast-intra / no-tskip-fast / no-cu-lossless / no-b-intra / no-splitrd-skip / rdpenalty=0 / psy-rd=2.00 / psy-rdoq=1.00 / no-rd-refine / no-lossless / cbqpoffs=0 / crqpoffs=0 / rc=abr / bitrate=5000 / qcomp=0.60 / qpstep=4 / stats-write=0 / stats-read=2 / cplxblur=20.0 / qblur=0.5 / vbv-maxrate=240000 / vbv-bufsize=240000 / vbv-init=0.9 / min-vbv-fullness=50.0 / max-vbv-fullness=80.0 / ipratio=1.40 / pbratio=1.30 / aq-mode=4 / aq-strength=1.00 / cutree / zone-count=0 / no-strict-cbr / qg-size=32 / no-rc-grain / qpmax=69 / qpmin=0 / no-const-vbv / sar=1 / overscan=0 / videoformat=5 / range=0 / colorprim=9 / transfer=16 / colormatrix=9 / chromaloc=1 / chromaloc-top=2 / chromaloc-bottom=2 / display-window=0 / master-display=G(13250,34500)B(7500,3000)R(34000,16000)WP(15635,16450)L(40000000,50) / cll=1000,300 / min-luma=0 / max-luma=1023 / log2-max-poc-lsb=8 / vui-timing-info / vui-hrd-info / slices=1 / no-opt-qp-pps / no-opt-ref-list-length-pps / no-multi-pass-opt-rps / scenecut-bias=0.05 / no-opt-cu-delta-qp / no-aq-motion / hdr10 / hdr10-opt / no-dhdr10-opt / no-idr-recovery-sei / analysis-reuse-level=0 / analysis-save-reuse-level=0 / analysis-load-reuse-level=0 / scale-factor=0 / refine-intra=0 / refine-inter=0 / refine-mv=1 / refine-ctu-distortion=0 / no-limit-sao / ctu-info=0 / no-lowpass-dct / refine-analysis-type=0 / copy-pic=1 / max-ausize-factor=1.0 / no-dynamic-refine / no-single-sei / no-hevc-aq / no-svt / no-field / qp-adaptation-range=1.00 / scenecut-aware-qp=0conformance-window-offsets / right=0 / bottom=0 / decoder-max-rate=0 / no-vbv-live-multi-pass / no-mcstf / no-sbrc
Default : Yes
Forced : No
Color range : Limited
Color primaries : BT.2020
Transfer characteristics : PQ
Matrix coefficients : BT.2020 non-constant
Mastering display color primaries : Display P3
Mastering display luminance : min: 0.0050 cd/m2, max: 4000 cd/m2
Maximum Content Light Level : 1000
MaxCLL_Original : 1000 cd/m2
Maximum Frame-Average Light Level : 300
MaxFALL_Original : 300 cd/m2

Audio #1
ID : 2
Format : E-AC-3 JOC
Format/Info : Enhanced AC-3 with Joint Object Coding
Commercial name : Dolby Digital Plus with Dolby Atmos
Codec ID : A_EAC3
Duration : 1 h 42 min
Bit rate mode : Constant
Bit rate : 768 kb/s
Channel(s) : 6 channels
Channel layout : L R C LFE Ls Rs
Sampling rate : 48.0 kHz
Frame rate : 31.250 FPS (1536 SPF)
Compression mode : Lossy
Delay relative to video : 16 ms
Stream size : 564 MiB (12%)
Title : Surround
Language : English
Service kind : Complete Main
Default : Yes
Forced : No
Complexity index : 16
Number of dynamic objects : 15
Bed channel count : 1 channel
Bed channel configuration : LFE

Audio #2
ID : 3
Format : AC-3
Format/Info : Audio Coding 3
Commercial name : Dolby Digital
Format settings : Dolby Surround
Codec ID : A_AC3
Duration : 1 h 42 min
Bit rate mode : Constant
Bit rate : 192 kb/s
Channel(s) : 2 channels
Channel layout : L R
Sampling rate : 48.0 kHz
Frame rate : 31.250 FPS (1536 SPF)
Compression mode : Lossy
Stream size : 141 MiB (3%)
Title : Commentary by director Simon West
Language : English
Service kind : Complete Main
Default : No
Forced : No

Text #1
ID : 4
Format : PGS
Muxing mode : zlib
Codec ID : S_HDMV/PGS
Codec ID/Info : Picture based subtitle format used on BDs/HD-DVDs
Duration : 1 h 31 min
Bit rate : 30.9 kb/s
Frame rate : 0.421 FPS
Count of elements : 2320
Stream size : 20.3 MiB (0%)
Title : SUP/SDH
Language : English
Default : Yes
Forced : No

Text #2
ID : 5
Format : ASS
Codec ID : S_TEXT/ASS
Codec ID/Info : Advanced Sub Station Alpha
Duration : 1 h 8 min
Bit rate : 1 b/s
Frame rate : 0.003 FPS
Count of elements : 13
Compression mode : Lossless
Stream size : 749 Bytes (0%)
Title : SRT/Forced
Language : English
Default : No
Forced : No

Text #3
ID : 6
Format : ASS
Codec ID : S_TEXT/ASS
Codec ID/Info : Advanced Sub Station Alpha
Duration : 1 h 30 min
Bit rate : 100 b/s
Frame rate : 0.183 FPS
Count of elements : 1001
Compression mode : Lossless
Stream size : 66.7 KiB (0%)
Title : SRT/Regular
Language : English
Default : No
Forced : No

Text #4
ID : 7
Format : PGS
Muxing mode : zlib
Codec ID : S_HDMV/PGS
Codec ID/Info : Picture based subtitle format used on BDs/HD-DVDs
Duration : 1 h 29 min
Bit rate : 26.7 kb/s
Frame rate : 0.366 FPS
Count of elements : 1976
Stream size : 17.2 MiB (0%)
Title : SUP/Regular
Language : English
Default : No
Forced : No

Text #5
ID : 8
Format : ASS
Codec ID : S_TEXT/ASS
Codec ID/Info : Advanced Sub Station Alpha
Duration : 1 h 31 min
Bit rate : 114 b/s
Frame rate : 0.212 FPS
Count of elements : 1167
Compression mode : Lossless
Stream size : 76.9 KiB (0%)
Title : SRT/SDH
Language : English
Default : No
Forced : No

Text #6
ID : 9
Format : PGS
Muxing mode : zlib
Codec ID : S_HDMV/PGS
Codec ID/Info : Picture based subtitle format used on BDs/HD-DVDs
Duration : 1 h 42 min
Bit rate : 14.0 kb/s
Frame rate : 0.217 FPS
Count of elements : 1328
Stream size : 10.2 MiB (0%)
Language : Czech
Default : No
Forced : No

Text #7
ID : 10
Format : PGS
Muxing mode : zlib
Codec ID : S_HDMV/PGS
Codec ID/Info : Picture based subtitle format used on BDs/HD-DVDs
Duration : 1 h 42 min
Bit rate : 13.9 kb/s
Frame rate : 0.220 FPS
Count of elements : 1346
Stream size : 10.1 MiB (0%)
Title : SDH
Language : Czech
Default : No
Forced : No

Text #8
ID : 11
Format : ASS
Codec ID : S_TEXT/ASS
Codec ID/Info : Advanced Sub Station Alpha
Duration : 1 h 32 min
Bit rate : 87 b/s
Frame rate : 0.146 FPS
Count of elements : 810
Compression mode : Lossless
Stream size : 59.1 KiB (0%)
Title : SRT
Language : Danish
Default : No
Forced : No

Text #9
ID : 12
Format : ASS
Codec ID : S_TEXT/ASS
Codec ID/Info : Advanced Sub Station Alpha
Duration : 1 h 31 min
Bit rate : 79 b/s
Frame rate : 0.137 FPS
Count of elements : 751
Compression mode : Lossless
Stream size : 53.0 KiB (0%)
Title : SRT
Language : Dutch
Default : No
Forced : No

Text #10
ID : 13
Format : ASS
Codec ID : S_TEXT/ASS
Codec ID/Info : Advanced Sub Station Alpha
Duration : 1 h 33 min
Bit rate : 84 b/s
Frame rate : 0.152 FPS
Count of elements : 856
Compression mode : Lossless
Stream size : 57.7 KiB (0%)
Title : SRT
Language : Finnish
Default : No
Forced : No

Text #11
ID : 14
Format : PGS
Muxing mode : zlib
Codec ID : S_HDMV/PGS
Codec ID/Info : Picture based subtitle format used on BDs/HD-DVDs
Duration : 1 h 33 min
Bit rate : 20.2 kb/s
Frame rate : 0.304 FPS
Count of elements : 1712
Stream size : 13.5 MiB (0%)
Language : Finnish
Default : No
Forced : No

Text #12
ID : 15
Format : PGS
Muxing mode : zlib
Codec ID : S_HDMV/PGS
Codec ID/Info : Picture based subtitle format used on BDs/HD-DVDs
Duration : 1 h 40 min
Bit rate : 17.7 kb/s
Frame rate : 0.335 FPS
Count of elements : 2028
Stream size : 12.8 MiB (0%)
Language : French
Default : No
Forced : No

Text #13
ID : 16
Format : PGS
Muxing mode : zlib
Codec ID : S_HDMV/PGS
Codec ID/Info : Picture based subtitle format used on BDs/HD-DVDs
Duration : 1 h 33 min
Bit rate : 25.1 kb/s
Frame rate : 0.300 FPS
Count of elements : 1686
Stream size : 16.8 MiB (0%)
Language : German
Default : No
Forced : No

Text #14
ID : 17
Format : ASS
Codec ID : S_TEXT/ASS
Codec ID/Info : Advanced Sub Station Alpha
Duration : 1 h 32 min
Bit rate : 109 b/s
Frame rate : 0.181 FPS
Count of elements : 1003
Compression mode : Lossless
Stream size : 74.1 KiB (0%)
Title : SRT/SDH
Language : German
Default : No
Forced : No

Text #15
ID : 18
Format : PGS
Muxing mode : zlib
Codec ID : S_HDMV/PGS
Codec ID/Info : Picture based subtitle format used on BDs/HD-DVDs
Duration : 1 h 32 min
Bit rate : 28.8 kb/s
Frame rate : 0.363 FPS
Count of elements : 2006
Stream size : 19.0 MiB (0%)
Title : SDH
Language : German
Default : No
Forced : No

Text #16
ID : 19
Format : PGS
Muxing mode : zlib
Codec ID : S_HDMV/PGS
Codec ID/Info : Picture based subtitle format used on BDs/HD-DVDs
Duration : 1 h 34 min
Bit rate : 25.5 kb/s
Frame rate : 0.318 FPS
Count of elements : 1793
Stream size : 17.2 MiB (0%)
Language : Hungarian
Default : No
Forced : No

Text #17
ID : 20
Format : PGS
Muxing mode : zlib
Codec ID : S_HDMV/PGS
Codec ID/Info : Picture based subtitle format used on BDs/HD-DVDs
Duration : 1 h 32 min
Bit rate : 40.1 kb/s
Frame rate : 0.329 FPS
Count of elements : 1816
Stream size : 26.4 MiB (1%)
Title : SDH
Language : Italian
Default : No
Forced : No

Text #18
ID : 21
Format : PGS
Muxing mode : zlib
Codec ID : S_HDMV/PGS
Codec ID/Info : Picture based subtitle format used on BDs/HD-DVDs
Duration : 1 h 32 min
Bit rate : 14.6 kb/s
Frame rate : 0.356 FPS
Count of elements : 1966
Stream size : 9.60 MiB (0%)
Language : Japanese
Default : No
Forced : No

Text #19
ID : 22
Format : ASS
Codec ID : S_TEXT/ASS
Codec ID/Info : Advanced Sub Station Alpha
Duration : 1 h 33 min
Bit rate : 77 b/s
Frame rate : 0.138 FPS
Count of elements : 776
Compression mode : Lossless
Stream size : 53.5 KiB (0%)
Title : SRT
Language : Norwegian
Default : No
Forced : No

Text #20
ID : 23
Format : ASS
Codec ID : S_TEXT/ASS
Codec ID/Info : Advanced Sub Station Alpha
Duration : 1 h 32 min
Bit rate : 97 b/s
Frame rate : 0.175 FPS
Count of elements : 965
Compression mode : Lossless
Stream size : 65.4 KiB (0%)
Title : Brazilian/SRT
Language : Portuguese
Default : No
Forced : No

Text #21
ID : 24
Format : PGS
Muxing mode : zlib
Codec ID : S_HDMV/PGS
Codec ID/Info : Picture based subtitle format used on BDs/HD-DVDs
Duration : 1 h 33 min
Bit rate : 32.7 kb/s
Frame rate : 0.358 FPS
Count of elements : 2008
Stream size : 21.9 MiB (0%)
Title : Brazilian
Language : Portuguese
Default : No
Forced : No

Text #22
ID : 25
Format : PGS
Muxing mode : zlib
Codec ID : S_HDMV/PGS
Codec ID/Info : Picture based subtitle format used on BDs/HD-DVDs
Duration : 1 h 33 min
Bit rate : 25.8 kb/s
Frame rate : 0.309 FPS
Count of elements : 1736
Stream size : 17.3 MiB (0%)
Language : Romanian
Default : No
Forced : No

Text #23
ID : 26
Format : ASS
Codec ID : S_TEXT/ASS
Codec ID/Info : Advanced Sub Station Alpha
Duration : 1 h 32 min
Bit rate : 97 b/s
Frame rate : 0.176 FPS
Count of elements : 973
Compression mode : Lossless
Stream size : 65.7 KiB (0%)
Title : Latin American/SRT
Language : Spanish
Default : No
Forced : No

Text #24
ID : 27
Format : PGS
Muxing mode : zlib
Codec ID : S_HDMV/PGS
Codec ID/Info : Picture based subtitle format used on BDs/HD-DVDs
Duration : 1 h 32 min
Bit rate : 23.6 kb/s
Frame rate : 0.373 FPS
Count of elements : 2062
Stream size : 15.6 MiB (0%)
Title : Latin American
Language : Spanish
Default : No
Forced : No

Text #25
ID : 28
Format : ASS
Codec ID : S_TEXT/ASS
Codec ID/Info : Advanced Sub Station Alpha
Duration : 1 h 32 min
Bit rate : 78 b/s
Frame rate : 0.129 FPS
Count of elements : 714
Compression mode : Lossless
Stream size : 53.3 KiB (0%)
Title : SRT
Language : Swedish
Default : No
Forced : No

Text #26
ID : 29
Format : PGS
Muxing mode : zlib
Codec ID : S_HDMV/PGS
Codec ID/Info : Picture based subtitle format used on BDs/HD-DVDs
Duration : 1 h 32 min
Bit rate : 12.8 kb/s
Frame rate : 0.215 FPS
Count of elements : 1189
Stream size : 8.44 MiB (0%)
Language : Swedish
Default : No
Forced : No

Text #27
ID : 30
Format : PGS
Muxing mode : zlib
Codec ID : S_HDMV/PGS
Codec ID/Info : Picture based subtitle format used on BDs/HD-DVDs
Duration : 1 h 33 min
Bit rate : 44.9 kb/s
Frame rate : 0.558 FPS
Count of elements : 3140
Stream size : 30.1 MiB (1%)
Title : Commentary
Language : French
Default : No
Forced : No

Text #28
ID : 31
Format : PGS
Muxing mode : zlib
Codec ID : S_HDMV/PGS
Codec ID/Info : Picture based subtitle format used on BDs/HD-DVDs
Duration : 1 h 32 min
Bit rate : 42.3 kb/s
Frame rate : 0.402 FPS
Count of elements : 2230
Stream size : 28.0 MiB (1%)
Title : Commentary
Language : German
Default : No
Forced : No

Menu
00:00:00.000 : Under Siege
00:10:01.518 : Take It or Leave It
00:18:03.499 : No Good
00:24:52.950 : Christmas Time
00:28:40.928 : The Inside
00:31:29.930 : Down to Business
00:39:08.972 : Can't Trust You
00:48:51.679 : Army Raid
00:54:32.686 : The Contact
00:59:22.392 : Behind Schedule
01:04:28.198 : I Belong Here
01:07:12.529 : A Statement
01:13:40.541 : Your Life
01:20:15.811 : How It Starts
01:28:25.133 : Kept Walking
01:31:22.560 : Questions
01:32:53.109 : End Credits

The.Expendables.2.2012.2160p.REMUX.DoVi.HDR10.HEVC.TrueHD.7.1-LM

Files