The Expendables 3 2014 UHD BluRay 1080p DDP Atmos 5 1 DoVi HDR x265-SM737

Barney and his team, known as "e;The Expendables"e;, come into conflict with ruthless arms dealer Conrad Stonebanks, the Expendables' co-founder, who is determined to destroy the team.

Year: 2014
Duration: 103 min
Release date: Friday 15th August 2014
Genre: Action, Adventure, Thriller

0

Your Rating

Stars:
Sylvester Stallone, Jason Statham, Jet Li, Antonio Banderas

https://www.imdb.com/title/tt2333784/

General
Unique ID : 71831350045482586217458589177841971333 (0x360A36FD1F3D3CEDA6012CED5B1FF085)
Complete name : The.Expendables.3.2014.UHD.BluRay.1080p.DDP.Atmos.5.1.DoVi.HDR.x265-SM737.mkv
Format : Matroska
Format version : Version 4
File size : 5.19 GiB
Duration : 2 h 6 min
Overall bit rate : 5 881 kb/s
Frame rate : 23.976 FPS
Encoded date : 2024-06-17 06:31:12 UTC
Writing application : mkvmerge v82.0 ('I'm The President') 64-bit
Writing library : libebml v1.4.5 + libmatroska v1.7.1 / Lavf61.1.100

Video
ID : 1
Format : HEVC
Format/Info : High Efficiency Video Coding
Format profile : Main 10@L5.2@High
HDR format : Dolby Vision, Version 1.0, dvhe.08.10, BL+RPU, HDR10 compatible / SMPTE ST 2086, HDR10 compatible / SMPTE ST 2086, HDR10 compatible
Codec ID : V_MPEGH/ISO/HEVC
Duration : 2 h 6 min
Bit rate : 5 036 kb/s
Width : 1 920 pixels
Height : 800 pixels
Display aspect ratio : 2.40:1
Frame rate mode : Constant
Frame rate : 23.976 (24000/1001) FPS
Color space : YUV
Chroma subsampling : 4:2:0 (Type 2)
Bit depth : 10 bits
Bits/(Pixel*Frame) : 0.137
Stream size : 4.45 GiB (86%)
Writing library : x265 3.6+1-aa7f602f7:[Windows][GCC 13.2.0][64 bit] 10bit
Encoding settings : cpuid=1111039 / frame-threads=4 / numa-pools=16 / wpp / no-pmode / no-pme / no-psnr / no-ssim / log-level=2 / input-csp=1 / input-res=1920x800 / interlace=0 / total-frames=0 / level-idc=52 / high-tier=1 / uhd-bd=0 / ref=6 / no-allow-non-conformance / repeat-headers / annexb / aud / no-eob / no-eos / hrd / info / hash=0 / temporal-layers=0 / open-gop / min-keyint=24 / keyint=240 / gop-lookahead=0 / bframes=8 / b-adapt=2 / b-pyramid / bframe-bias=0 / rc-lookahead=40 / lookahead-slices=4 / scenecut=40 / no-hist-scenecut / radl=0 / no-splice / no-intra-refresh / ctu=64 / min-cu-size=8 / rect / no-amp / max-tu-size=32 / tu-inter-depth=1 / tu-intra-depth=1 / limit-tu=0 / rdoq-level=2 / dynamic-rd=0.00 / no-ssim-rd / signhide / no-tskip / nr-intra=0 / nr-inter=0 / no-constrained-intra / strong-intra-smoothing / max-merge=3 / limit-refs=3 / limit-modes / me=3 / subme=3 / merange=57 / temporal-mvp / no-frame-dup / no-hme / no-weightp / no-weightb / no-analyze-src-pics / deblock=-3:-3 / no-sao / no-sao-non-deblock / rd=4 / selective-sao=0 / no-early-skip / rskip / no-fast-intra / no-tskip-fast / no-cu-lossless / no-b-intra / no-splitrd-skip / rdpenalty=0 / psy-rd=2.00 / psy-rdoq=1.00 / no-rd-refine / no-lossless / cbqpoffs=0 / crqpoffs=0 / rc=abr / bitrate=5000 / qcomp=0.60 / qpstep=4 / stats-write=0 / stats-read=2 / cplxblur=20.0 / qblur=0.5 / vbv-maxrate=240000 / vbv-bufsize=240000 / vbv-init=0.9 / min-vbv-fullness=50.0 / max-vbv-fullness=80.0 / ipratio=1.40 / pbratio=1.30 / aq-mode=4 / aq-strength=1.00 / cutree / zone-count=0 / no-strict-cbr / qg-size=32 / no-rc-grain / qpmax=69 / qpmin=0 / no-const-vbv / sar=1 / overscan=0 / videoformat=5 / range=0 / colorprim=9 / transfer=16 / colormatrix=9 / chromaloc=1 / chromaloc-top=2 / chromaloc-bottom=2 / display-window=0 / master-display=G(13250,34500)B(7500,3000)R(34000,16000)WP(15635,16450)L(10000000,1) / cll=1000,300 / min-luma=0 / max-luma=1023 / log2-max-poc-lsb=8 / vui-timing-info / vui-hrd-info / slices=1 / no-opt-qp-pps / no-opt-ref-list-length-pps / no-multi-pass-opt-rps / scenecut-bias=0.05 / no-opt-cu-delta-qp / no-aq-motion / hdr10 / hdr10-opt / no-dhdr10-opt / no-idr-recovery-sei / analysis-reuse-level=0 / analysis-save-reuse-level=0 / analysis-load-reuse-level=0 / scale-factor=0 / refine-intra=0 / refine-inter=0 / refine-mv=1 / refine-ctu-distortion=0 / no-limit-sao / ctu-info=0 / no-lowpass-dct / refine-analysis-type=0 / copy-pic=1 / max-ausize-factor=1.0 / no-dynamic-refine / no-single-sei / no-hevc-aq / no-svt / no-field / qp-adaptation-range=1.00 / scenecut-aware-qp=0conformance-window-offsets / right=0 / bottom=0 / decoder-max-rate=0 / no-vbv-live-multi-pass / no-mcstf / no-sbrc
Default : Yes
Forced : No
Color range : Limited
Color primaries : BT.2020
Transfer characteristics : PQ
Matrix coefficients : BT.2020 non-constant
Mastering display color primaries : Display P3
Mastering display luminance : min: 0.0001 cd/m2, max: 1000 cd/m2
Maximum Content Light Level : 1000
MaxCLL_Original : 1000 cd/m2
Maximum Frame-Average Light Level : 300
MaxFALL_Original : 300 cd/m2

Audio
ID : 2
Format : E-AC-3 JOC
Format/Info : Enhanced AC-3 with Joint Object Coding
Commercial name : Dolby Digital Plus with Dolby Atmos
Codec ID : A_EAC3
Duration : 2 h 6 min
Bit rate mode : Constant
Bit rate : 768 kb/s
Channel(s) : 6 channels
Channel layout : L R C LFE Ls Rs
Sampling rate : 48.0 kHz
Frame rate : 31.250 FPS (1536 SPF)
Compression mode : Lossy
Stream size : 694 MiB (13%)
Title : Surround
Language : English
Service kind : Complete Main
Default : Yes
Forced : No
Complexity index : 16
Number of dynamic objects : 15
Bed channel count : 1 channel
Bed channel configuration : LFE

Text #1
ID : 3
Format : PGS
Muxing mode : zlib
Codec ID : S_HDMV/PGS
Codec ID/Info : Picture based subtitle format used on BDs/HD-DVDs
Duration : 1 h 54 min
Bit rate : 32.5 kb/s
Frame rate : 0.465 FPS
Count of elements : 3200
Stream size : 26.7 MiB (1%)
Title : SUP/SDH
Language : English
Default : Yes
Forced : No

Text #2
ID : 4
Format : ASS
Codec ID : S_TEXT/ASS
Codec ID/Info : Advanced Sub Station Alpha
Duration : 1 h 53 min
Bit rate : 100 b/s
Frame rate : 0.177 FPS
Count of elements : 1207
Compression mode : Lossless
Stream size : 83.6 KiB (0%)
Title : SRT/Regular
Language : English
Default : No
Forced : No

Text #3
ID : 5
Format : PGS
Muxing mode : zlib
Codec ID : S_HDMV/PGS
Codec ID/Info : Picture based subtitle format used on BDs/HD-DVDs
Duration : 1 h 53 min
Bit rate : 27.0 kb/s
Frame rate : 0.353 FPS
Count of elements : 2414
Stream size : 22.0 MiB (0%)
Title : SUP/Regular
Language : English
Default : No
Forced : No

Text #4
ID : 6
Format : ASS
Codec ID : S_TEXT/ASS
Codec ID/Info : Advanced Sub Station Alpha
Duration : 1 h 54 min
Bit rate : 124 b/s
Frame rate : 0.233 FPS
Count of elements : 1608
Compression mode : Lossless
Stream size : 105 KiB (0%)
Title : SRT/SDH
Language : English
Default : No
Forced : No

Text #5
ID : 7
Format : ASS
Codec ID : S_TEXT/ASS
Codec ID/Info : Advanced Sub Station Alpha
Duration : 1 h 54 min
Bit rate : 119 b/s
Frame rate : 0.173 FPS
Count of elements : 1192
Compression mode : Lossless
Stream size : 101 KiB (0%)
Title : SRT
Language : Arabic
Default : No
Forced : No

Text #6
ID : 8
Format : ASS
Codec ID : S_TEXT/ASS
Codec ID/Info : Advanced Sub Station Alpha
Duration : 2 h 5 min
Bit rate : 86 b/s
Frame rate : 0.167 FPS
Count of elements : 1254
Compression mode : Lossless
Stream size : 79.7 KiB (0%)
Title : SRT
Language : French
Default : No
Forced : No

Text #7
ID : 9
Format : PGS
Muxing mode : zlib
Codec ID : S_HDMV/PGS
Codec ID/Info : Picture based subtitle format used on BDs/HD-DVDs
Duration : 2 h 5 min
Bit rate : 17.9 kb/s
Frame rate : 0.333 FPS
Count of elements : 2504
Stream size : 16.0 MiB (0%)
Language : French
Default : No
Forced : No

Text #8
ID : 10
Format : PGS
Muxing mode : zlib
Codec ID : S_HDMV/PGS
Codec ID/Info : Picture based subtitle format used on BDs/HD-DVDs
Duration : 2 h 5 min
Bit rate : 23.7 kb/s
Frame rate : 0.543 FPS
Count of elements : 4100
Stream size : 21.3 MiB (0%)
Title : SDH/Positional
Language : French
Default : No
Forced : No

Text #9
ID : 11
Format : PGS
Muxing mode : zlib
Codec ID : S_HDMV/PGS
Codec ID/Info : Picture based subtitle format used on BDs/HD-DVDs
Duration : 2 h 5 min
Bit rate : 27.1 kb/s
Frame rate : 0.287 FPS
Count of elements : 2158
Stream size : 24.3 MiB (0%)
Language : German
Default : No
Forced : No

Text #10
ID : 12
Format : ASS
Codec ID : S_TEXT/ASS
Codec ID/Info : Advanced Sub Station Alpha
Duration : 2 h 5 min
Bit rate : 92 b/s
Frame rate : 0.160 FPS
Count of elements : 1204
Compression mode : Lossless
Stream size : 85.4 KiB (0%)
Title : SRT/SDH
Language : German
Default : No
Forced : No

Text #11
ID : 13
Format : PGS
Muxing mode : zlib
Codec ID : S_HDMV/PGS
Codec ID/Info : Picture based subtitle format used on BDs/HD-DVDs
Duration : 2 h 5 min
Bit rate : 29.7 kb/s
Frame rate : 0.319 FPS
Count of elements : 2400
Stream size : 26.6 MiB (1%)
Title : SDH
Language : German
Default : No
Forced : No

Text #12
ID : 14
Format : PGS
Muxing mode : zlib
Codec ID : S_HDMV/PGS
Codec ID/Info : Picture based subtitle format used on BDs/HD-DVDs
Duration : 2 h 5 min
Bit rate : 22.7 kb/s
Frame rate : 0.324 FPS
Count of elements : 2442
Stream size : 20.4 MiB (0%)
Language : Italian
Default : No
Forced : No

Text #13
ID : 15
Format : PGS
Muxing mode : zlib
Codec ID : S_HDMV/PGS
Codec ID/Info : Picture based subtitle format used on BDs/HD-DVDs
Duration : 2 h 5 min
Bit rate : 21.6 kb/s
Frame rate : 0.325 FPS
Count of elements : 2448
Stream size : 19.4 MiB (0%)
Language : Spanish
Default : No
Forced : No

Text #14
ID : 16
Format : PGS
Muxing mode : zlib
Codec ID : S_HDMV/PGS
Codec ID/Info : Picture based subtitle format used on BDs/HD-DVDs
Duration : 1 h 54 min
Bit rate : 26.4 kb/s
Frame rate : 0.351 FPS
Count of elements : 2422
Stream size : 21.7 MiB (0%)
Title : Latin American
Language : Spanish
Default : No
Forced : No

Menu
00:00:00.000 : Chapter 1
00:05:53.311 : Chapter 2
00:12:39.968 : Chapter 3
00:17:56.200 : Chapter 4
00:25:33.323 : Chapter 5
00:30:27.576 : Chapter 6
00:33:59.788 : Chapter 7
00:38:37.106 : Chapter 8
00:46:12.103 : Chapter 9
00:54:11.123 : Chapter 10
00:57:13.305 : Chapter 11
01:03:53.747 : Chapter 12
01:10:40.987 : Chapter 13
01:15:45.833 : Chapter 14
01:23:30.297 : Chapter 15
01:29:48.133 : Chapter 16
01:36:32.954 : Chapter 17
01:45:19.438 : Chapter 18
01:51:09.580 : Chapter 19
01:55:45.647 : Chapter 20

The.Expendables.3.2014.Theatrical.Cut.2160p.REMUX.DoVi.HDR10.HEVC.TrueHD.7.1-LM

Files