Assassianation 1987 720p BluRay x264-x0r

Jay Killion (Charles Bronson) had been the presidential bodyguard, but for the inauguration of the recently elected president...

Year: 1987
Duration: 105 min
Release date: Friday 9th January 1987
Genre: Action, Drama, Thriller

Rating

5/10
(1761 Votes)

0

Your Rating

Stars:
Charles Bronson, Jill Ireland, Stephen Elliott, Jan Gan Boyd

http://www.imdb.com/title/tt0092585

General
Unique ID : 270331606576062152010126928520832539914 (0xCB5FF93DF99F2CDF120D153A6AFEDD0A)
Complete name : Assassianation.1987.720p.BluRay.x264-x0r.mkv
Format : Matroska
Format version : Version 4
File size : 1.68 GiB
Duration : 1 h 28 min
Overall bit rate : 2 721 kb/s
Movie name : Assassianation.1987.720p.BluRay.x264-x0r
Encoded date : UTC 2015-11-12 16:36:51
Writing application : mkvmerge v7.4.0 ('Circles') 64bit built on Dec 12 2014 15:04:11
Writing library : libebml v1.3.0 + libmatroska v1.4.1

Video
ID : 1
Format : AVC
Format/Info : Advanced Video Codec: Format profile : High@L4
Format settings : CABAC / 8 Ref Frames
Format settings, CABAC : Yes
Format settings, Reference frames : 8 frames
Codec ID : V_MPEG4/ISO/AVC
Duration : 1 h 28 min
Bit rate : 2 560 kb/s
Width : 1 280 pixels
Height : 720 pixels
Display aspect ratio : 16:9
Frame rate mode : Variable
Frame rate : 23.976 FPS
Color space : YUV
Chroma subsampling : 4:2:0
Bit depth : 8 bits
Scan type : Progressive
Bits/(Pixel*Frame) : 0.116
Stream size : 1.58 GiB (94%)
Writing library : x264 core 142 r2389 956c8d8
Encoding settings : cabac=1 / ref=8 / deblock=1:-2:-2 / analyse=0x3:0x113 / me=umh / subme=9 / psy=1 / psy_rd=1.00:0.25 / mixed_ref=0 / me_range=48 / chroma_me=1 / trellis=1 / 8x8dct=1 / cqm=0 / deadzone=6,6 / fast_pskip=0 / chroma_qp_offset=-4 / threads=12 / lookahead_threads=1 / sliced_threads=0 / nr=0 / decimate=1 / interlaced=0 / bluray_compat=0 / constrained_intra=0 / bframes=4 / b_pyramid=2 / b_adapt=2 / b_bias=0 / direct=3 / weightb=1 / open_gop=0 / weightp=2 / keyint=240 / keyint_min=24 / scenecut=40 / intra_refresh=0 / rc_lookahead=120 / rc=2pass / mbtree=1 / bitrate=2560 / ratetol=1.0 / qcomp=0.80 / qpmin=0 / qpmax=69 / qpstep=4 / cplxblur=20.0 / qblur=0.5 / vbv_maxrate=20000 / vbv_bufsize=25000 / nal_hrd=none / filler=0 / ip_ratio=1.10 / aq=1:0.50
Language : English
Default : Yes
Forced : No
Color range : Limited
Color primaries : BT.709
Transfer characteristics : BT.709
Matrix coefficients : BT.709

Audio
ID : 2
Format : AC-3
Format/Info : Audio Coding 3
Commercial name : Dolby Digital
Codec ID : A_AC3
Duration : 1 h 28 min
Bit rate mode : Constant
Bit rate : 160 kb/s
Channel(s) : 2 channels
Channel layout : L R
Sampling rate : 48.0 kHz
Frame rate : 31.250 FPS (1536 SPF)
Compression mode : Lossy
Delay relative to video : -5 ms
Stream size : 101 MiB (6%)
Title : Stereo
Language : English
Service kind : Complete Main
Default : Yes
Forced : No

Text
ID : 3
Format : UTF-8
Codec ID : S_TEXT/UTF8
Codec ID/Info : UTF-8 Plain Text
Duration : 1 h 21 min
Bit rate : 55 b/s
Count of elements : 846
Stream size : 33.3 KiB (0%)
Language : English
Default : Yes
Forced : No

Menu
00:00:00.000 : :Chapter 1
00:07:01.705 : :Chapter 2
00:14:13.053 : :Chapter 3
00:22:17.704 : :Chapter 4
00:29:49.780 : :Chapter 5
00:35:51.809 : :Chapter 6
00:43:48.577 : :Chapter 7
00:51:00.258 : :Chapter 8
01:00:29.660 : :Chapter 9
01:06:58.590 : :Chapter 10
01:13:55.715 : :Chapter 11
01:22:00.032 : :Chapter 12

Files