Beverly Hills Cop Axel F 2024-2160p (Upscale) WEB HDR10 HEVC 10 bit Encode DDP5 1 Atmos-R&H

Axel Foley returns to Beverly Hills after his daughter's life's threatened. Includes old pals John Taggart and Billy Rosewood working to uncover a conspiracy.

Year: 2024
Duration: 115 min
Release date: Wednesday 3rd July 2024
Genre: Action, Comedy, Crime, Thriller

Rating

8.7/10
(25 Votes)

0

Your Rating

Stars:
Eddie Murphy, Judge Reinhold, Kevin Bacon, Joseph Gordon-Levitt, John Ashton, Bronson Pinchot, Mark Pellegrino, Paul Reiser

https://www.imdb.com/title/tt3083016/ https://i.ibb.co/yQBZCRx/1.jpg

Source: Beverly.Hills.Cop.Axel.F.2024.1080p.NF.WEB-DL.DDP5.1.Atmos.H.264-FLUX (Thanks!)

General
Unique ID : 204868594151076216381021218342243123711 (0x9A20418A224CD8EF5A71DCF562F3C1FF)
Complete name : E:\Beverly.Hills.Cop.Axel.F.2024-2160p.(Upscale).WEB.HDR10.HEVC.10.bit.Encode.DDP5.1.Atmos-R&H.mkv
Format : Matroska
Format version : Version 4
File size : 18.1 GiB
Duration : 1 h 57 min
Overall bit rate : 22.0 Mb/s
Frame rate : 24.000 FPS
Encoded date : 2024-07-06 20:12:29 UTC
Writing application : Lavf61.3.103
Writing library : Lavf61.3.103
ErrorDetectionType : Per level 1
VIDEOAI : Enhanced using ahq-12. Changed resolution to 3840x2160

Video
ID : 1
Format : HEVC
Format/Info : High Efficiency Video Coding
Format profile : Main 10@L5@High
HDR format : SMPTE ST 2086, HDR10 compatible
Codec ID : V_MPEGH/ISO/HEVC
Duration : 1 h 57 min
Bit rate : 9 332 kb/s
Width : 3 840 pixels
Height : 2 160 pixels
Display aspect ratio : 16:9
Frame rate mode : Constant
Frame rate : 24.000 FPS
Color space : YUV
Chroma subsampling : 4:2:0
Bit depth : 10 bits
Bits/(Pixel*Frame) : 0.047
Stream size : 7.69 GiB (42%)
Writing library : Lavc61.5.103 hevc_nvenc
Default : No
Forced : No
Color range : Limited
Color primaries : BT.2020
Transfer characteristics : PQ
Matrix coefficients : BT.2020 non-constant
Mastering display color pri : BT.2020
Mastering display luminance : min: 0.0001 cd/m2, max: 1000 cd/m2
Maximum Content Light Level : 1000
Maximum Frame-Average Light : 400

Audio
ID : 2
Format : E-AC-3 JOC
Format/Info : Enhanced AC-3 with Joint Object Coding
Commercial name : Dolby Digital Plus with Dolby Atmos
Codec ID : A_EAC3
Duration : 1 h 57 min
Bit rate mode : Constant
Bit rate : 768 kb/s
Channel(s) : 6 channels
Channel layout : L R C LFE Ls Rs
Sampling rate : 48.0 kHz
Frame rate : 31.250 FPS (1536 SPF)
Bit depth : 32 bits
Compression mode : Lossy
Stream size : 648 MiB (3%)
Language : English
Service kind : Complete Main
Default : Yes
Forced : No
Complexity index : 16
Number of dynamic objects : 15
Bed channel count : 1 channel
Bed channel configuration : LFE
Dialog Normalization : -27 dB
compr : -0.28 dB
dialnorm_Average : -27 dB
dialnorm_Minimum : -27 dB
dialnorm_Maximum : -27 dB

Text #1
ID : 3
Format : UTF-8
Codec ID : S_TEXT/UTF8
Codec ID/Info : UTF-8 Plain Text
Duration : 56 min 53 s
Bit rate : 0 b/s
Frame rate : 0.001 FPS
Count of elements : 4
Stream size : 105 Bytes (0%)
Language : English
Default : Yes
Forced : Yes

Text #2
ID : 4
Format : UTF-8
Codec ID : S_TEXT/UTF8
Codec ID/Info : UTF-8 Plain Text
Duration : 1 h 52 min
Bit rate : 92 b/s
Frame rate : 0.303 FPS
Count of elements : 2038
Stream size : 76.0 KiB (0%)
Language : English
Default : No
Forced : No

Text #3
ID : 5
Format : UTF-8
Codec ID : S_TEXT/UTF8
Codec ID/Info : UTF-8 Plain Text
Duration : 1 h 52 min
Bit rate : 100 b/s
Frame rate : 0.334 FPS
Count of elements : 2255
Stream size : 82.5 KiB (0%)
Title : SDH
Language : English
Default : No
Forced : No

Text #4
ID : 6
Format : UTF-8
Codec ID : S_TEXT/UTF8
Codec ID/Info : UTF-8 Plain Text
Duration : 1 h 55 min
Bit rate : 128 b/s
Frame rate : 0.269 FPS
Count of elements : 1858
Stream size : 108 KiB (0%)
Language : Arabic
Default : No
Forced : No

Text #5
ID : 7
Format : UTF-8
Codec ID : S_TEXT/UTF8
Codec ID/Info : UTF-8 Plain Text
Duration : 1 h 55 min
Bit rate : 65 b/s
Frame rate : 0.266 FPS
Count of elements : 1834
Stream size : 55.2 KiB (0%)
Language : Catalan
Default : No
Forced : No

Text #6
ID : 8
Format : UTF-8
Codec ID : S_TEXT/UTF8
Codec ID/Info : UTF-8 Plain Text
Duration : 1 h 55 min
Bit rate : 70 b/s
Frame rate : 0.244 FPS
Count of elements : 1683
Stream size : 58.8 KiB (0%)
Language : Czech
Default : No
Forced : No

Text #7
ID : 9
Format : UTF-8
Codec ID : S_TEXT/UTF8
Codec ID/Info : UTF-8 Plain Text
Duration : 1 h 55 min
Bit rate : 68 b/s
Frame rate : 0.203 FPS
Count of elements : 1399
Stream size : 57.5 KiB (0%)
Language : Danish
Default : No
Forced : No

Text #8
ID : 10
Format : UTF-8
Codec ID : S_TEXT/UTF8
Codec ID/Info : UTF-8 Plain Text
Duration : 1 h 55 min
Bit rate : 64 b/s
Frame rate : 0.254 FPS
Count of elements : 1753
Stream size : 54.5 KiB (0%)
Language : German
Default : No
Forced : No

Text #9
ID : 11
Format : UTF-8
Codec ID : S_TEXT/UTF8
Codec ID/Info : UTF-8 Plain Text
Duration : 1 h 55 min
Bit rate : 111 b/s
Frame rate : 0.261 FPS
Count of elements : 1803
Stream size : 94.0 KiB (0%)
Language : Greek
Default : No
Forced : No

Text #10
ID : 12
Format : UTF-8
Codec ID : S_TEXT/UTF8
Codec ID/Info : UTF-8 Plain Text
Duration : 1 h 55 min
Bit rate : 70 b/s
Frame rate : 0.258 FPS
Count of elements : 1783
Stream size : 58.9 KiB (0%)
Title : Latin American
Language : Spanish
Default : No
Forced : No

Text #11
ID : 13
Format : UTF-8
Codec ID : S_TEXT/UTF8
Codec ID/Info : UTF-8 Plain Text
Duration : 1 h 55 min
Bit rate : 69 b/s
Frame rate : 0.253 FPS
Count of elements : 1749
Stream size : 58.5 KiB (0%)
Language : Spanish
Default : No
Forced : No

Text #12
ID : 14
Format : UTF-8
Codec ID : S_TEXT/UTF8
Codec ID/Info : UTF-8 Plain Text
Duration : 1 h 55 min
Bit rate : 64 b/s
Frame rate : 0.260 FPS
Count of elements : 1799
Stream size : 54.0 KiB (0%)
Language : Basque
Default : No
Forced : No

Text #13
ID : 15
Format : UTF-8
Codec ID : S_TEXT/UTF8
Codec ID/Info : UTF-8 Plain Text
Duration : 1 h 55 min
Bit rate : 66 b/s
Frame rate : 0.203 FPS
Count of elements : 1403
Stream size : 56.0 KiB (0%)
Language : Finnish
Default : No
Forced : No

Text #14
ID : 16
Format : UTF-8
Codec ID : S_TEXT/UTF8
Codec ID/Info : UTF-8 Plain Text
Duration : 1 h 55 min
Bit rate : 68 b/s
Frame rate : 0.259 FPS
Count of elements : 1790
Stream size : 57.8 KiB (0%)
Language : Filipino
Default : No
Forced : No

Text #15
ID : 17
Format : UTF-8
Codec ID : S_TEXT/UTF8
Codec ID/Info : UTF-8 Plain Text
Duration : 1 h 55 min
Bit rate : 67 b/s
Frame rate : 0.262 FPS
Count of elements : 1809
Stream size : 56.6 KiB (0%)
Language : French
Default : No
Forced : No

Text #16
ID : 18
Format : UTF-8
Codec ID : S_TEXT/UTF8
Codec ID/Info : UTF-8 Plain Text
Duration : 1 h 55 min
Bit rate : 64 b/s
Frame rate : 0.244 FPS
Count of elements : 1685
Stream size : 54.4 KiB (0%)
Language : Galician
Default : No
Forced : No

Text #17
ID : 19
Format : UTF-8
Codec ID : S_TEXT/UTF8
Codec ID/Info : UTF-8 Plain Text
Duration : 1 h 55 min
Bit rate : 117 b/s
Frame rate : 0.252 FPS
Count of elements : 1744
Stream size : 99.0 KiB (0%)
Language : Hebrew
Default : No
Forced : No

Text #18
ID : 20
Format : UTF-8
Codec ID : S_TEXT/UTF8
Codec ID/Info : UTF-8 Plain Text
Duration : 1 h 55 min
Bit rate : 60 b/s
Frame rate : 0.255 FPS
Count of elements : 1759
Stream size : 50.5 KiB (0%)
Language : Croatian
Default : No
Forced : No

Text #19
ID : 21
Format : UTF-8
Codec ID : S_TEXT/UTF8
Codec ID/Info : UTF-8 Plain Text
Duration : 1 h 55 min
Bit rate : 67 b/s
Frame rate : 0.248 FPS
Count of elements : 1710
Stream size : 56.8 KiB (0%)
Language : Hungarian
Default : No
Forced : No

Text #20
ID : 22
Format : UTF-8
Codec ID : S_TEXT/UTF8
Codec ID/Info : UTF-8 Plain Text
Duration : 1 h 55 min
Bit rate : 71 b/s
Frame rate : 0.262 FPS
Count of elements : 1808
Stream size : 60.4 KiB (0%)
Language : Indonesian
Default : No
Forced : No

Text #21
ID : 23
Format : UTF-8
Codec ID : S_TEXT/UTF8
Codec ID/Info : UTF-8 Plain Text
Duration : 1 h 55 min
Bit rate : 67 b/s
Frame rate : 0.248 FPS
Count of elements : 1715
Stream size : 56.8 KiB (0%)
Language : Italian
Default : No
Forced : No

Text #22
ID : 24
Format : UTF-8
Codec ID : S_TEXT/UTF8
Codec ID/Info : UTF-8 Plain Text
Duration : 1 h 55 min
Bit rate : 54 b/s
Frame rate : 0.281 FPS
Count of elements : 1941
Stream size : 45.5 KiB (0%)
Language : Japanese
Default : No
Forced : No

Text #23
ID : 25
Format : UTF-8
Codec ID : S_TEXT/UTF8
Codec ID/Info : UTF-8 Plain Text
Duration : 1 h 55 min
Bit rate : 80 b/s
Frame rate : 0.265 FPS
Count of elements : 1828
Stream size : 67.4 KiB (0%)
Language : Korean
Default : No
Forced : No

Text #24
ID : 26
Format : UTF-8
Codec ID : S_TEXT/UTF8
Codec ID/Info : UTF-8 Plain Text
Duration : 1 h 55 min
Bit rate : 70 b/s
Frame rate : 0.276 FPS
Count of elements : 1905
Stream size : 59.4 KiB (0%)
Language : Malay
Default : No
Forced : No

Text #25
ID : 27
Format : UTF-8
Codec ID : S_TEXT/UTF8
Codec ID/Info : UTF-8 Plain Text
Duration : 1 h 55 min
Bit rate : 66 b/s
Frame rate : 0.251 FPS
Count of elements : 1736
Stream size : 55.6 KiB (0%)
Language : Norwegian Bokmal
Default : No
Forced : No

Text #26
ID : 28
Format : UTF-8
Codec ID : S_TEXT/UTF8
Codec ID/Info : UTF-8 Plain Text
Duration : 1 h 55 min
Bit rate : 63 b/s
Frame rate : 0.183 FPS
Count of elements : 1261
Stream size : 53.6 KiB (0%)
Language : Dutch
Default : No
Forced : No

Text #27
ID : 29
Format : UTF-8
Codec ID : S_TEXT/UTF8
Codec ID/Info : UTF-8 Plain Text
Duration : 1 h 55 min
Bit rate : 64 b/s
Frame rate : 0.243 FPS
Count of elements : 1680
Stream size : 54.2 KiB (0%)
Language : Polish
Default : No
Forced : No

Text #28
ID : 30
Format : UTF-8
Codec ID : S_TEXT/UTF8
Codec ID/Info : UTF-8 Plain Text
Duration : 1 h 55 min
Bit rate : 65 b/s
Frame rate : 0.262 FPS
Count of elements : 1810
Stream size : 55.4 KiB (0%)
Title : Brazilian
Language : Portuguese
Default : No
Forced : No

Text #29
ID : 31
Format : UTF-8
Codec ID : S_TEXT/UTF8
Codec ID/Info : UTF-8 Plain Text
Duration : 1 h 55 min
Bit rate : 65 b/s
Frame rate : 0.217 FPS
Count of elements : 1496
Stream size : 55.4 KiB (0%)
Language : Portuguese
Default : No
Forced : No

Text #30
ID : 32
Format : UTF-8
Codec ID : S_TEXT/UTF8
Codec ID/Info : UTF-8 Plain Text
Duration : 1 h 55 min
Bit rate : 65 b/s
Frame rate : 0.233 FPS
Count of elements : 1607
Stream size : 54.7 KiB (0%)
Language : Romanian
Default : No
Forced : No

Text #31
ID : 33
Format : UTF-8
Codec ID : S_TEXT/UTF8
Codec ID/Info : UTF-8 Plain Text
Duration : 1 h 55 min
Bit rate : 111 b/s
Frame rate : 0.258 FPS
Count of elements : 1780
Stream size : 93.7 KiB (0%)
Language : Russian
Default : No
Forced : No

Text #32
ID : 34
Format : UTF-8
Codec ID : S_TEXT/UTF8
Codec ID/Info : UTF-8 Plain Text
Duration : 1 h 55 min
Bit rate : 72 b/s
Frame rate : 0.238 FPS
Count of elements : 1646
Stream size : 60.5 KiB (0%)
Language : Swedish
Default : No
Forced : No

Text #33
ID : 35
Format : UTF-8
Codec ID : S_TEXT/UTF8
Codec ID/Info : UTF-8 Plain Text
Duration : 1 h 55 min
Bit rate : 163 b/s
Frame rate : 0.264 FPS
Count of elements : 1822
Stream size : 137 KiB (0%)
Language : Thai
Default : No
Forced : No

Text #34
ID : 36
Format : UTF-8
Codec ID : S_TEXT/UTF8
Codec ID/Info : UTF-8 Plain Text
Duration : 1 h 55 min
Bit rate : 71 b/s
Frame rate : 0.228 FPS
Count of elements : 1572
Stream size : 60.3 KiB (0%)
Language : Turkish
Default : No
Forced : No

Text #35
ID : 37
Format : UTF-8
Codec ID : S_TEXT/UTF8
Codec ID/Info : UTF-8 Plain Text
Duration : 1 h 55 min
Bit rate : 107 b/s
Frame rate : 0.263 FPS
Count of elements : 1814
Stream size : 90.0 KiB (0%)
Language : Ukrainian
Default : No
Forced : No

Text #36
ID : 38
Format : UTF-8
Codec ID : S_TEXT/UTF8
Codec ID/Info : UTF-8 Plain Text
Duration : 1 h 55 min
Bit rate : 93 b/s
Frame rate : 0.262 FPS
Count of elements : 1809
Stream size : 78.7 KiB (0%)
Language : Vietnamese
Default : No
Forced : No

Text #37
ID : 39
Format : UTF-8
Codec ID : S_TEXT/UTF8
Codec ID/Info : UTF-8 Plain Text
Duration : 1 h 55 min
Bit rate : 72 b/s
Frame rate : 0.273 FPS
Count of elements : 1888
Stream size : 60.5 KiB (0%)
Title : Simplified
Language : Chinese
Default : No
Forced : No

Text #38
ID : 40
Format : UTF-8
Codec ID : S_TEXT/UTF8
Codec ID/Info : UTF-8 Plain Text
Duration : 1 h 55 min
Bit rate : 70 b/s
Frame rate : 0.272 FPS
Count of elements : 1881
Stream size : 59.1 KiB (0%)
Title : Traditional
Language : Chinese
Default : No
Forced : No

Files