Turbulence 1997 2160p UHD BluRay REMUX DV HEVC DTS-MA 5 1-W32

After a shootout on a flight transporting prisoners, a stewardess must outwit a smooth-talking serial killer and land the plane herself.

Year: 1997
Duration: 100 min
Release date: Friday 10th January 1997
Genre: Action, Thriller

Rating

4.6/10
(6503 Votes)

0

Your Rating

Stars:
Ray Liotta, Lauren Holly, Brendan Gleeson, Hector Elizondo

General
Unique ID : 24818871343194193197939905579588662175 (0x12ABF0D5079A28505BD836B4525E339F)
Complete name :Turbulence.1997.2160p.UHD.BluRay.REMUX.DV.HEVC.DTS-MA.5.1-W32.mkv
Format : Matroska
Format version : Version 4
File size : 72.9 GiB
Duration : 1 h 41 min
Overall bit rate mode : Variable
Overall bit rate : 103 Mb/s
Frame rate : 23.976 FPS
Encoded date : 2024-07-07 15:37:01 UTC
Writing application : mkvmerge v85.0 ('Shame For You') 64-bit
Writing library : libebml v1.4.5 + libmatroska v1.7.1

Video
ID : 1
Format : HEVC
Format/Info : High Efficiency Video Coding
Format profile : Main 10@L5.1@High
HDR format : Dolby Vision, Version 1.0, Profile 7.6, dvhe.07.06, BL+EL+RPU, no metadata compression, Blu-ray compatible / SMPTE ST 2086, Version HDR10, HDR10 compatible
Codec ID : V_MPEGH/ISO/HEVC
Duration : 1 h 41 min
Bit rate : 98.8 Mb/s
Width : 3 840 pixels
Height : 2 160 pixels
Display aspect ratio : 16:9
Frame rate mode : Constant
Frame rate : 23.976 (24000/1001) FPS
Color space : YUV
Chroma subsampling : 4:2:0 (Type 2)
Bit depth : 10 bits
Bits/(Pixel*Frame) : 0.497
Stream size : 69.9 GiB (96%)
Default : Yes
Forced : No
Color range : Limited
Color primaries : BT.2020
Transfer characteristics : PQ
Matrix coefficients : BT.2020 non-constant
Mastering display color primaries : Display P3
Mastering display luminance : min: 0.0001 cd/m2, max: 1000 cd/m2
Maximum Content Light Level : 1034 cd/m2
Maximum Frame-Average Light Level : 244 cd/m2

Audio #1
ID : 2
Format : DTS XLL
Format/Info : Digital Theater Systems
Commercial name : DTS-HD Master Audio
Codec ID : A_DTS
Duration : 1 h 41 min
Bit rate mode : Variable
Bit rate : 2 450 kb/s
Channel(s) : 6 channels
Channel layout : C L R Ls Rs LFE
Sampling rate : 48.0 kHz
Frame rate : 93.750 FPS (512 SPF)
Bit depth : 16 bits
Compression mode : Lossless
Stream size : 1.73 GiB (2%)
Title : Surround 5.1
Language : English
Default : Yes
Forced : No

Audio #2
ID : 3
Format : DTS XLL
Format/Info : Digital Theater Systems
Commercial name : DTS-HD Master Audio
Codec ID : A_DTS
Duration : 1 h 41 min
Bit rate mode : Variable
Bit rate : 1 567 kb/s
Channel(s) : 2 channels
Channel layout : L R
Sampling rate : 48.0 kHz
Frame rate : 93.750 FPS (512 SPF)
Bit depth : 16 bits
Compression mode : Lossless
Stream size : 1.11 GiB (2%)
Title : Lossless 2.0 Stereo Audio
Language : English
Default : Yes
Forced : No

Audio #3
ID : 4
Format : AC-3
Format/Info : Audio Coding 3
Commercial name : Dolby Digital
Codec ID : A_AC3
Duration : 1 h 41 min
Bit rate mode : Constant
Bit rate : 192 kb/s
Channel(s) : 2 channels
Channel layout : L R
Sampling rate : 48.0 kHz
Frame rate : 31.250 FPS (1536 SPF)
Compression mode : Lossy
Stream size : 139 MiB (0%)
Title : Commentary by Director Robert Butler, Moderated by Filmmaker Joe Begos
Language : English
Service kind : Complete Main
Default : Yes
Forced : No
Dialog Normalization : -31 dB
compr : -0.28 dB
mixlevel : 285 dB
roomtyp : 3
ltrtcmixlev : -3.0 dB
ltrtsurmixlev : -3.0 dB
lorocmixlev : -3.0 dB
lorosurmixlev : -3.0 dB
dialnorm_Average : -31 dB
dialnorm_Minimum : -31 dB
dialnorm_Maximum : -31 dB

Text
ID : 5
Format : PGS
Codec ID : S_HDMV/PGS
Codec ID/Info : Picture based subtitle format used on BDs/HD-DVDs
Duration : 1 h 40 min
Bit rate : 47.3 kb/s
Frame rate : 0.481 FPS
Count of elements : 2903
Stream size : 34.1 MiB (0%)
Language : English
Default : Yes
Forced : No

Menu
00:00:00.000 : Capítulo 01
00:06:35.061 : Capítulo 02
00:18:50.504 : Capítulo 03
00:33:07.402 : Capítulo 04
00:48:21.232 : Capítulo 05
00:58:19.663 : Capítulo 06
01:10:36.065 : Capítulo 07
01:24:21.265 : Capítulo 08
01:37:12.660 : Capítulo 09
01:41:11.857 : Capítulo 10

Files