Dark Angel 1990 2160p UHD Blu-ray Remux HEVC DV DTS-HD MA 5 1-HDT

Jack Caine (Dolph Lundgren) is a Houston vice cop who's forgotten the rule book. His self-appointed...

Year: 1990
Duration: 91 min
Release date: Friday 28th September 1990
Genre: Action, Crime, Drama, Horror, Sci-Fi, Thriller

Rating

6/10
(4967 Votes)

0

Your Rating

Stars:
Dolph Lundgren, Brian Benben, Betsy Brantley, Matthias Hues

General
Unique ID : 8525351911007548093227458915528491856 (0x669EC4D36A95945445946EED1E64350)
Complete name : Dark Angel 1990 2160p UHD Blu-ray Remux HEVC DV DTS-HD MA 5.1-HDT.mkv
Format : Matroska
Format version : Version 4
File size : 54.5 GiB
Duration : 1 h 31 min
Overall bit rate mode : Variable
Overall bit rate : 85.1 Mb/s
Frame rate : 24.000 FPS
Movie name : Dark Angel 1990
Encoded date : 2024-07-07 17:55:53 UTC
Writing application : mkvmerge v85.0 ('Shame For You') 64-bit
Writing library : libebml v1.4.5 + libmatroska v1.7.1
Cover : Yes
Attachments : cover.jpg

Video
ID : 1
ID in the original source medium : 4113 (0x1011)
Format : HEVC
Format/Info : High Efficiency Video Coding
Format profile : Main 10@L5.1@High
HDR format : Dolby Vision, Version 1.0, dvhe.07.06, BL+EL+RPU, Blu-ray compatible / SMPTE ST 2086, HDR10 compatible
Codec ID : V_MPEGH/ISO/HEVC
Duration : 1 h 31 min
Bit rate : 80.3 Mb/s
Width : 3 840 pixels
Height : 2 160 pixels
Display aspect ratio : 16:9
Frame rate mode : Constant
Frame rate : 24.000 FPS
Color space : YUV
Chroma subsampling : 4:2:0 (Type 2)
Bit depth : 10 bits
Bits/(Pixel*Frame) : 0.403
Time code of first frame : 00:00:00:0000000000
Stream size : 51.4 GiB (94%)
Language : English
Default : Yes
Forced : No
Color range : Limited
Color primaries : BT.2020
Transfer characteristics : PQ
Matrix coefficients : BT.2020 non-constant
Mastering display color primaries : Display P3
Mastering display luminance : min: 0.0001 cd/m2, max: 1000 cd/m2
Maximum Content Light Level : 995 cd/m2
Maximum Frame-Average Light Level : 520 cd/m2
Original source medium : Blu-ray

Audio #1
ID : 2
ID in the original source medium : 4352 (0x1100)
Format : DTS XLL
Format/Info : Digital Theater Systems
Commercial name : DTS-HD Master Audio
Codec ID : A_DTS
Duration : 1 h 31 min
Bit rate mode : Variable
Bit rate : 3 468 kb/s
Channel(s) : 6 channels
Channel layout : C L R Ls Rs LFE
Sampling rate : 48.0 kHz
Frame rate : 93.750 FPS (512 SPF)
Bit depth : 24 bits
Compression mode : Lossless
Stream size : 2.22 GiB (4%)
Language : English
Default : Yes
Forced : No
Original source medium : Blu-ray

Audio #2
ID : 3
Format : FLAC
Format/Info : Free Lossless Audio Codec: Codec ID : A_FLAC
Duration : 1 h 31 min
Bit rate mode : Variable
Bit rate : 1 278 kb/s
Channel(s) : 2 channels
Channel layout : L R
Sampling rate : 48.0 kHz
Frame rate : 11.719 FPS (4096 SPF)
Bit depth : 24 bits
Compression mode : Lossless
Stream size : 838 MiB (2%)
Title : Stereo
Writing library : libFLAC 1.4.3 (2023-06-23)
Language : English
Default : No
Forced : No
MD5 of the unencoded content : 53182D00C93DD45F357070CE6820442C

Text #1
ID : 4
Format : UTF-8
Codec ID : S_TEXT/UTF8
Codec ID/Info : UTF-8 Plain Text
Duration : 1 h 27 min
Bit rate : 49 b/s
Frame rate : 0.217 FPS
Count of elements : 1136
Stream size : 31.9 KiB (0%)
Language : English
Default : No
Forced : No

Text #2
ID : 5
Format : PGS
Codec ID : S_HDMV/PGS
Codec ID/Info : Picture based subtitle format used on BDs/HD-DVDs
Duration : 1 h 30 min
Bit rate : 33.8 kb/s
Frame rate : 0.469 FPS
Count of elements : 2542
Stream size : 21.9 MiB (0%)
Title : SDH
Language : English
Default : No
Forced : No

Text #3
ID : 6
Format : UTF-8
Codec ID : S_TEXT/UTF8
Codec ID/Info : UTF-8 Plain Text
Duration : 1 h 27 min
Bit rate : 74 b/s
Frame rate : 0.145 FPS
Count of elements : 759
Stream size : 47.4 KiB (0%)
Language : Arabic
Default : No
Forced : No

Text #4
ID : 7
Format : UTF-8
Codec ID : S_TEXT/UTF8
Codec ID/Info : UTF-8 Plain Text
Duration : 1 h 30 min
Bit rate : 71 b/s
Frame rate : 0.138 FPS
Count of elements : 750
Stream size : 47.7 KiB (0%)
Language : Bulgarian
Default : No
Forced : No

Text #5
ID : 8
Format : UTF-8
Codec ID : S_TEXT/UTF8
Codec ID/Info : UTF-8 Plain Text
Duration : 1 h 27 min
Bit rate : 40 b/s
Frame rate : 0.140 FPS
Count of elements : 735
Stream size : 26.0 KiB (0%)
Language : Danish
Default : No
Forced : No

Text #6
ID : 9
Format : UTF-8
Codec ID : S_TEXT/UTF8
Codec ID/Info : UTF-8 Plain Text
Duration : 1 h 30 min
Bit rate : 43 b/s
Frame rate : 0.135 FPS
Count of elements : 735
Stream size : 28.5 KiB (0%)
Language : French
Default : No
Forced : No

Text #7
ID : 10
Format : UTF-8
Codec ID : S_TEXT/UTF8
Codec ID/Info : UTF-8 Plain Text
Duration : 1 h 27 min
Bit rate : 42 b/s
Frame rate : 0.150 FPS
Count of elements : 786
Stream size : 27.0 KiB (0%)
Language : German
Default : No
Forced : No

Text #8
ID : 11
Format : UTF-8
Codec ID : S_TEXT/UTF8
Codec ID/Info : UTF-8 Plain Text
Duration : 1 h 30 min
Bit rate : 40 b/s
Frame rate : 0.135 FPS
Count of elements : 734
Stream size : 26.6 KiB (0%)
Language : Norwegian
Default : No
Forced : No

Menu
00:00:00.000 : en:Chapter 01
00:07:46.083 : en:Chapter 02
00:14:26.916 : en:Chapter 03
00:20:46.083 : en:Chapter 04
00:28:38.250 : en:Chapter 05
00:35:13.500 : en:Chapter 06
00:42:14.958 : en:Chapter 07
00:48:48.000 : en:Chapter 08
00:55:43.708 : en:Chapter 09
01:03:31.875 : en:Chapter 10
01:09:52.791 : en:Chapter 11
01:19:15.458 : en:Chapter 12

Files