Blown Away 1994 2160p BluRay UHD REMUX DV HDR HEVC DTS-HD MA 5 1-Top10UKSingle

An Irish bomber escapes from prison and targets a member of the Boston bomb squad.

Year: 1994
Duration: 121 min
Release date: Friday 1st July 1994
Genre: Action, Crime, Drama, Thriller

Rating

6.1/10
(21488 Votes)

0

Your Rating

Stars:
Jeff Bridges, Tommy Lee Jones, Suzy Amis, Lloyd Bridges

General
Unique ID : 137707944103818232431618076505380409031 (0x679995D711DE760FCCFF30DEEF92CEC7)
Complete name : G:\Blown.Away.1994.2160p.BluRay.UHD.REMUX.DV.HDR.HEVC.DTS-HD.MA.5.1-Top10UKSingle.mkv
Format : Matroska
Format version : Version 4
File size : 65.2 GiB
Duration : 2 h 0 min
Overall bit rate mode : Variable
Overall bit rate : 77.3 Mb/s
Frame rate : 24.000 FPS
Movie name : Blown.Away.1994.2160p.BluRay.UHD.REMUX.DV.HDR.HEVC.DTS-HD.MA.5.1-Top10UKSingle
Encoded date : 2024-07-08 06:35:28 UTC
Writing application : mkvmerge v83.0 ('Circle Of Friends') 64-bit
Writing library : libebml v1.4.5 + libmatroska v1.7.1

Video
ID : 1
Format : HEVC
Format/Info : High Efficiency Video Coding
Format profile : Main 10@L5.1@High
HDR format : SMPTE ST 2086, HDR10 compatible
Codec ID : V_MPEGH/ISO/HEVC
Duration : 2 h 0 min
Bit rate : 74.9 Mb/s
Width : 3 840 pixels
Height : 2 160 pixels
Display aspect ratio : 16:9
Frame rate mode : Constant
Frame rate : 24.000 FPS
Color space : YUV
Chroma subsampling : 4:2:0 (Type 2)
Bit depth : 10 bits
Bits/(Pixel*Frame) : 0.376
Stream size : 63.1 GiB (97%)
Default : Yes
Forced : No
Color range : Limited
Color primaries : BT.2020
Transfer characteristics : PQ
Matrix coefficients : BT.2020 non-constant
Mastering display color primaries : Display P3
Mastering display luminance : min: 0.0001 cd/m2, max: 1000 cd/m2

Audio
ID : 2
Format : DTS XLL
Format/Info : Digital Theater Systems
Commercial name : DTS-HD Master Audio
Codec ID : A_DTS
Duration : 2 h 0 min
Bit rate mode : Variable
Bit rate : 2 458 kb/s
Channel(s) : 6 channels
Channel layout : C L R Ls Rs LFE
Sampling rate : 48.0 kHz
Frame rate : 93.750 FPS (512 SPF)
Bit depth : 16 bits
Compression mode : Lossless
Stream size : 2.07 GiB (3%)
Language : English
Default : Yes
Forced : No

Text
ID : 3
Format : PGS
Muxing mode : zlib
Codec ID : S_HDMV/PGS
Codec ID/Info : Picture based subtitle format used on BDs/HD-DVDs
Duration : 1 h 53 min
Bit rate : 25.2 kb/s
Frame rate : 0.306 FPS
Count of elements : 2076
Stream size : 20.4 MiB (0%)
Language : English
Default : Yes
Forced : No

Menu
00:00:00.000 : Chapter 01
00:07:16.750 : Chapter 02
00:16:24.792 : Chapter 03
00:34:15.042 : Chapter 04
00:51:57.042 : Chapter 05
01:11:32.500 : Chapter 06
01:24:31.083 : Chapter 07
01:37:47.417 : Chapter 08
01:55:49.875 : Chapter 09

Files