Act of Violence 1949 1080p BluRay REMUX AVC FLAC 2 0-TRiToN

An embittered, vengeful POW stalks his former commanding officer who betrayed his men's planned escape attempt from a Nazi prison camp.

Year: 1948
Duration: 82 min
Release date: Wednesday 29th March 1950
Genre: Drama, Film-Noir, Thriller

Rating

7.5/10
(5758 Votes)

0

Your Rating

Stars:
Van Heflin, Robert Ryan, Janet Leigh, Mary Astor, Phyllis Thaxter, Berry Kroeger, Taylor Holmes, Harry Antrim

Release...: Act of Violence 1949 1080p BluRay REMUX AVC FLAC 2.0-TRiToN
Video.....: MPEG-4 AVC Video / 34873 kbps / 1080p / 23.976 fps / 16:9 / High Profile 4.1
Audio.....: English / FLAC Audio / 2.0 / 48 kHz / 421 kbps / 24-bit
Audio.....: English / Commentary by film historian Drew Casper
Source....: Act of Violence 1948 1080p Blu-ray AVC DTS-HD MA 2.0-InfectedMind (Thanks!)
Notes.....: Enjoy.

eac3to log:
eac3to v3.34
command line: "e;eac3to.exe"e; BDMV 1) 1: chapters.txt 2: video.h264 3: english.flac 4: english.ac3 5: english.sup -log=log.txt -progressnumbers
------------------------------------------------------------------------------
M2TS, 1 video track, 2 audio tracks, 1 subtitle track, 1:22:36, 24p /1.001
1: Chapters, 25 chapters
2: h264/AVC, 1080p24 /1.001 (16:9)
3: DTS Master Audio, English, 2.0 channels, 24 bits, 48kHz
(core: DTS, 2.0 channels, 1509kbps, 48kHz)
4: AC3, English, 2.0 channels, 192kbps, 48kHz
5: Subtitle (PGS), English
Creating file "e;chapters.txt"e;...
[v02] Extracting video track number 2...
[a03] Extracting audio track number 3...
[a04] Extracting audio track number 4...
[a03] Decoding with libDcaDec DTS Decoder...
[a03] Encoding FLAC with libFlac...
[s05] Extracting subtitle track number 5...
[v02] Creating file "e;video.h264"e;...
[a03] Creating file "e;english.flac"e;...
[a04] Creating file "e;english.ac3"e;...
[s05] Creating file "e;english.sup"e;...
[a03] The original audio track has a constant bit depth of 24 bits.
Video track 2 contains 118817 frames.
Subtitle track 5 contains 1176 captions.
eac3to processing took 4 minutes, 47 seconds.
Done.

MediaInfo:
General
Unique ID : 324535527533441629252904167575059273725 (0xF42744E06C2C39BE15226B2C5F6597FD)
Complete name : Act.of.Violence.1949.1080p.BluRay.REMUX.AVC.FLAC.2.0-TRiToN.mkv
Format : Matroska
Format version : Version 4
File size : 20.4 GiB
Duration : 1 h 22 min
Overall bit rate mode : Variable
Overall bit rate : 35.3 Mb/s
Frame rate : 23.976 FPS
Movie name : Act of Violence (1949)
Encoded date : 2024-07-03 04:52:49 UTC
Writing application : mkvmerge v85.0 ('Shame For You') 64-bit
Writing library : libebml v1.4.5 + libmatroska v1.7.1
IMDB : tt0041088
TMDB : movie/32850

Video
ID : 1
Format : AVC
Format/Info : Advanced Video Codec: Format profile : High@L4.1
Format settings : CABAC / 4 Ref Frames
Format settings, CABAC : Yes
Format settings, Reference frames : 4 frames
Format settings, Slice count : 4 slices per frame
Codec ID : V_MPEG4/ISO/AVC
Duration : 1 h 22 min
Bit rate mode : Variable
Bit rate : 34.7 Mb/s
Maximum bit rate : 38.0 Mb/s
Width : 1 920 pixels
Height : 1 080 pixels
Display aspect ratio : 16:9
Frame rate mode : Constant
Frame rate : 23.976 (24000/1001) FPS
Color space : YUV
Chroma subsampling : 4:2:0
Bit depth : 8 bits
Scan type : Progressive
Bits/(Pixel*Frame) : 0.698
Time code of first frame : 01:00:00:00
Stream size : 20.0 GiB (98%)
Title : MPEG-4 AVC Video / 34873 kbps / 1080p / 23.976 fps / 16:9 / High Profile 4.1
Language : zxx
Default : Yes
Forced : No

Audio #1
ID : 2
Format : FLAC
Format/Info : Free Lossless Audio Codec: Codec ID : A_FLAC
Duration : 1 h 22 min
Bit rate mode : Variable
Bit rate : 421 kb/s
Channel(s) : 2 channels
Channel layout : L R
Sampling rate : 48.0 kHz
Frame rate : 11.719 FPS (4096 SPF)
Bit depth : 24 bits
Compression mode : Lossless
Stream size : 248 MiB (1%)
Title : FLAC Audio / 2.0 / 48 kHz / 421 kbps / 24-bit
Writing library : libFLAC 1.4.3 (2023-06-23)
Language : English
Default : Yes
Forced : No
MD5 of the unencoded content : 4720A25A6F469912D620EB1046F1C348

Audio #2
ID : 3
Format : AC-3
Format/Info : Audio Coding 3
Commercial name : Dolby Digital
Codec ID : A_AC3
Duration : 1 h 22 min
Bit rate mode : Constant
Bit rate : 192 kb/s
Channel(s) : 2 channels
Channel layout : L R
Sampling rate : 48.0 kHz
Frame rate : 31.250 FPS (1536 SPF)
Compression mode : Lossy
Stream size : 113 MiB (1%)
Title : Commentary by film historian Drew Casper
Language : English
Service kind : Complete Main
Default : No
Forced : No
Dialog Normalization : -31 dB
compr : -0.28 dB
dialnorm_Average : -31 dB
dialnorm_Minimum : -31 dB
dialnorm_Maximum : -31 dB

Text
ID : 4
Format : PGS
Codec ID : S_HDMV/PGS
Codec ID/Info : Picture based subtitle format used on BDs/HD-DVDs
Duration : 1 h 20 min
Bit rate : 34.5 kb/s
Frame rate : 0.486 FPS
Count of elements : 2352
Stream size : 19.9 MiB (0%)
Title : SDH
Language : English
Default : No
Forced : No

Menu
00:00:00.000 : en:Chapter 01
00:03:42.097 : en:Chapter 02
00:07:22.108 : en:Chapter 03
00:09:34.574 : en:Chapter 04
00:15:00.733 : en:Chapter 05
00:18:07.503 : en:Chapter 06
00:23:28.616 : en:Chapter 07
00:33:18.038 : en:Chapter 08
00:39:13.226 : en:Chapter 09
00:41:46.629 : en:Chapter 10
00:44:03.015 : en:Chapter 11
00:46:31.914 : en:Chapter 12
00:50:09.673 : en:Chapter 13
00:54:50.287 : en:Chapter 14
00:58:04.690 : en:Chapter 15
01:01:26.641 : en:Chapter 16
01:03:52.412 : en:Chapter 17
01:06:55.011 : en:Chapter 18
01:09:19.655 : en:Chapter 19
01:14:22.291 : en:Chapter 20
01:16:31.003 : en:Chapter 21
01:18:42.760 : en:Chapter 22
01:20:58.228 : en:Chapter 23
01:22:11.593 : en:Chapter 24
01:22:12.427 : en:Chapter 25

Files