Meet John Doe 1941 1080p BluRay REMUX AVC FLAC 2 0-TRiToN

As a parting shot, fired reporter Ann Mitchell prints a fake letter from unemployed "e;John Doe,"e; who threatens suicide in protest of social ills. The paper is forced to rehire Ann and hires John Willoughby to impersonate "e;Doe."e; Ann and her bosses cynically milk the story for all it's worth, until the made-up "e;John Doe"e; philosophy starts a whole political movement. At last everyone, even Ann, takes her creation seriously...but publisher D.B. Norton has a secret plan. Written by Rod Crawford
Episode Summary: A man needing money agrees to impersonate a nonexistent person who said he'd be committing suicide as a protest, and a political movement begins.

Episode Title: L'homme de la rue
Episode Air date: Friday 11th July 1947
Duration: 122 min
Genre: Comedy, Drama, Romance

Rating

7.6/10
(10453 Votes)

0

Your Rating

Stars: Gary Cooper, Barbara Stanwyck, Edward Arnold, Walter Brennan

Release...: Meet John Doe 1941 1080p BluRay REMUX AVC FLAC 2.0-TRiToN
Video.....: MPEG-4 AVC Video / 34991 kbps / 1080p / 23.976 fps / 16:9 / High Profile 4.1
Audio.....: English / FLAC Audio / 2.0 / 48 kHz / 637 kbps / 24-bit
Source....: Meet John Doe 1941 1080p Blu-ray AVC DTS-HD MA 2.0-KIMI (Thanks!)
Notes.....: Enjoy.

eac3to log:
eac3to v3.34
command line: "e;eac3to.exe"e; BDMV 1) 1: chapters.txt 2: video.h264 3: english.flac 4: english.sup -log=log.txt -progressnumbers
------------------------------------------------------------------------------
M2TS, 1 video track, 1 audio track, 1 subtitle track, 2:04:03, 24p /1.001
1: Chapters, 22 chapters
2: h264/AVC, 1080p24 /1.001 (16:9)
3: DTS Master Audio, English, 2.0 channels, 24 bits, 48kHz
(core: DTS, 2.0 channels, 1509kbps, 48kHz)
4: Subtitle (PGS), English
Creating file "e;chapters.txt"e;...
[a03] Extracting audio track number 3...
[a03] Decoding with libDcaDec DTS Decoder...
[a03] Encoding FLAC with libFlac...
[v02] Extracting video track number 2...
[s04] Extracting subtitle track number 4...
[v02] Creating file "e;video.h264"e;...
[a03] Creating file "e;english.flac"e;...
[s04] Creating file "e;english.sup"e;...
[a03] The original audio track has a constant bit depth of 24 bits.
Video track 2 contains 178453 frames.
Subtitle track 4 contains 2515 captions.
eac3to processing took 5 minutes, 24 seconds.
Done.

MediaInfo:
General
Unique ID : 320855462160449896836731763163579632231 (0xF16283A53331BCF2193567F014714A67)
Complete name : Meet.John.Doe.1941.1080p.BluRay.REMUX.AVC.FLAC.2.0-TRiToN.mkv
Format : Matroska
Format version : Version 4
File size : 30.8 GiB
Duration : 2 h 4 min
Overall bit rate mode : Variable
Overall bit rate : 35.6 Mb/s
Frame rate : 23.976 FPS
Movie name : Meet John Doe (1941)
Encoded date : 2024-07-03 12:43:30 UTC
Writing application : mkvmerge v85.0 ('Shame For You') 64-bit
Writing library : libebml v1.4.5 + libmatroska v1.7.1
IMDB : tt0033891
TMDB : movie/32574

Video
ID : 1
Format : AVC
Format/Info : Advanced Video Codec: Format profile : High@L4.1
Format settings : CABAC / 4 Ref Frames
Format settings, CABAC : Yes
Format settings, Reference frames : 4 frames
Format settings, Slice count : 4 slices per frame
Codec ID : V_MPEG4/ISO/AVC
Duration : 2 h 4 min
Bit rate mode : Variable
Bit rate : 34.9 Mb/s
Maximum bit rate : 38.0 Mb/s
Width : 1 920 pixels
Height : 1 080 pixels
Display aspect ratio : 16:9
Frame rate mode : Constant
Frame rate : 23.976 (24000/1001) FPS
Color space : YUV
Chroma subsampling : 4:2:0
Bit depth : 8 bits
Scan type : Progressive
Bits/(Pixel*Frame) : 0.701
Time code of first frame : 01:00:00:00
Stream size : 30.2 GiB (98%)
Title : MPEG-4 AVC Video / 34991 kbps / 1080p / 23.976 fps / 16:9 / High Profile 4.1
Language : zxx
Default : Yes
Forced : No

Audio
ID : 2
Format : FLAC
Format/Info : Free Lossless Audio Codec: Codec ID : A_FLAC
Duration : 2 h 4 min
Bit rate mode : Variable
Bit rate : 637 kb/s
Channel(s) : 2 channels
Channel layout : L R
Sampling rate : 48.0 kHz
Frame rate : 11.719 FPS (4096 SPF)
Bit depth : 24 bits
Compression mode : Lossless
Stream size : 565 MiB (2%)
Title : FLAC Audio / 2.0 / 48 kHz / 637 kbps / 24-bit
Writing library : libFLAC 1.4.3 (2023-06-23)
Language : English
Default : Yes
Forced : No
MD5 of the unencoded content : 6EC82EC97E8229BEB9D6F757C3E39F80

Text
ID : 3
Format : PGS
Codec ID : S_HDMV/PGS
Codec ID/Info : Picture based subtitle format used on BDs/HD-DVDs
Duration : 2 h 2 min
Bit rate : 58.4 kb/s
Frame rate : 0.685 FPS
Count of elements : 5030
Stream size : 51.1 MiB (0%)
Title : SDH
Language : English
Default : No
Forced : No

Menu
00:00:00.000 : en:Chapter 01
00:02:22.142 : en:Chapter 02
00:06:35.895 : en:Chapter 03
00:09:17.807 : en:Chapter 04
00:18:12.341 : en:Chapter 05
00:21:06.265 : en:Chapter 06
00:25:48.756 : en:Chapter 07
00:28:50.562 : en:Chapter 08
00:32:43.962 : en:Chapter 09
00:35:53.651 : en:Chapter 10
00:41:14.472 : en:Chapter 11
00:55:10.974 : en:Chapter 12
01:08:11.587 : en:Chapter 13
01:11:43.299 : en:Chapter 14
01:17:27.643 : en:Chapter 15
01:19:05.741 : en:Chapter 16
01:20:54.349 : en:Chapter 17
01:26:08.538 : en:Chapter 18
01:33:25.600 : en:Chapter 19
01:40:59.053 : en:Chapter 20
01:51:32.686 : en:Chapter 21
02:03:23.021 : en:Chapter 22

Files